DNS SERVER AENDERNum der staatlichen Zensur zu umgehen. Sollten wir von eurem Provider geseprrt werden, nutzt den TOR BROWSER oder ändert euren DNS SERVER.

Filmwünsche können bei uns im Forum abgegeben werden

Wir Speichern Nicht




 
 
 
Top Releases
Stronger.2017.German.720p.Bl...
Nur.Gott.kann.mich.richten.2...
Nur.Gott.kann.mich.richten.2...
Endspiel.2018.German.DL.Doku...
Endspiel.2018.German.DL.Doku...
Deadpool.2.THEATRiCAL.2018.G...
Deadpool.2.THEATRiCAL.2018.G...
Mercury.13.2018.German.DL.Do...
Mercury.13.2018.German.DL.Do...
Die.Wolken.von.Sils.Maria.20...

Cinedubs
The.Equalizer.2.TS.LD.German...
Der.Hauptmann.2017.German.AA...
Der.Hauptmann.2017.German.AA...
Ghost.Stories.2017.German.AC...
Ghost.Stories.2017.German.AC...
Oceans.8.German.DL.AC3.Dubbe...
Oceans.8.German.DL.AC3.Dubbe...
Hereditary.Das.Vermaechtnis....
Hereditary.Das.Vermaechtnis....
Oceans.8.2018.German.DL.AC3D...

Neuerscheinungen 2017-18
Kings.2017.German.720p.BluRa...
Kings.2017.German.DL.1080p.B...
Winchester.Das.Haus.der.Verd...
Bodycheck.Youngblood.1986.MU...
The.End.2017.GERMAN.DUAL.COM...
The.End.2017.GERMAN.1080p.Bl...
Vater.des.Jahres.2018.German...
The.End.2017.GERMAN.720p.Blu...
Derren.Brown.The.Push.2018.G...
Derren.Brown.The.Push.2018.G...

XXX
TabooPOV.18.08.16.Lauren.Phi...
PornMegaLoad.18.08.20.Violet...
SweetheartVideo.18.08.21.Che...
ReadyOrNotHereICum.18.08.20....
WowGirls.18.08.20.Anna.Di.Li...
Swallowed.18.08.16.Julie.Kay...
Spizoo.18.08.20.Shelby.Paris...
PropertySex.18.08.17.Lily.Ra...
StrandedTeens.18.08.16.Sicil...
SlimeWave.18.08.20.Cutie.Is....
Your.Moms.Twat.Is.Hot.9.XXX....
PureTaboo.18.08.16.Elena.Kos...
SweetheartVideo.Lesbian.Step...
Public.Sex.8.XXX.1080p.WEBRi...
Swallowed.18.08.20.Giselle.P...
PublicDisgrace.18.08.20.Mona...
Yonitale.18.08.15.Sicilia.Y....
PublicAgent.18.08.21.Sherry....
PornMegaLoad.18.08.20.Desire...
WankItNow.17.09.02.Tammie.Le...

3D
Avengers.Infinity.War.3D.201...
Rampage.Big.Meets.Bigger.3D....
Rampage.Big.Meets.Bigger.3D....
Rampage.Big.Meets.Bigger.3D....
Winter.Games.3D.2013.DUAL.CO...
Tomb.Raider.3D.2018.German.7...
Rampage.Big.Meets.Bigger.3D....
Rampage.Big.Meets.Bigger.3D....
Tomb.Raider.3D.2018.MULTi.CO...
Pacific.Rim.Uprising.3D.2018...
Ready.Player.One.3D.2018.Ger...
Rampage.-.Big.Meets.Bigger.2...
Ready.Player.One.2018.3D.HOU...
Ready.Player.One.2018.3D.HSB...
Ready.Player.One.3D.2018.MUL...

Old_Stuff
21.2008.German.DL.1080p.BluR...
Achtung.fertig.WK.Swissgerma...
The.Ouija.Exorcism.2015.MULT...
Meine.liebe.Rabenmutter.germ...
Da.Vincis.Demons.S01.Complet...
Eragon.Das.Vermaechtnis.der....
Adele.und.das.Geheimnis.des....
Die.fabelhafte.Welt.der.Amel...
Haus.des.Geldes.S01.German.M...
How.I.Met.Your.Mother.S01.Ge...
The.Dark.Knight.Rises.2012.M...
Weissensee.S03.2015.GERMAN.C...
Weissensee.S01+S02.2010.GERM...
Die.Unglaublichen.-.The.Incr...
Der.grosse.Trick.1978.German...

Filme
Tom.Clancys.Jack.Ryan.S01.Ge...
The.Last.Man.On.Earth.S04.Ge...
The.Last.Man.On.Earth.S04.Ge...
Missions.S01.GERMAN.DUBBED.7...
Narcos.S03.COMPLETE.German.D...
Gone.Baby.Gone.2007.German.D...
London.Boulevard.2010.German...
Celeste.und.Jesse.German.DL....
CBGB.2013.GERMAN.AC3D.DL.108...
Unsere.Erde.2.2017.German.DT...
Unsere.Erde.2.2017.German.DT...
Unsere.Erde.2.2017.German.DT...
Winchester.Das.Haus.der.Verd...
Cabal.-.Die.Brut.der.Nacht.C...
Car.Wash.1976.German.AC3D.DL...
Feuer.ueber.England.1937.Ger...
Sin.City.2005.DTS-HD.German....
Elliot.das.Schmunzelmonster....
Nur.fuer.Offiziere.1964.Germ...
Arrow.S06.GERMAN.DL.1080p.HD...
Arrow.S06.GERMAN.DL.720p.HDT...
Razorback.Kampfkoloss.der.Ho...
Rails.and.Ties.-.Aufbruch.in...
Deadpool.2.Super.Duper.Cut.2...

 
 
Sons.of.Anarchy.S04.COMPLETE.GERMAN.DUBBED.DL.1080p.BluRay.x264-TVP

Jahr: 2011
Genre: Krimi | Drama | Thriller
Sprache: Deutsch AC3 | Englisch AC3
Laufzeit: 55min je Folge
Bitrate: 9000 Kbps
Format: MKV
Größe: 4,5 GB je Folge
Release:

Beschreibung:

Die Serie spielt in Charming, einer fiktiven Kleinstadt nahe Oakland in Nordkalifornien. Der Protagonist der Serie ist Jackson „Jax“ Teller, zu Beginn noch der Vizepräsident des Motorrad-Clubs (MC), der beginnt, die Methoden und Sichtweisen des Clubs und dessen Präsidenten Clay Morrow, der gleichzeitig Jax’ Stiefvater ist, in Frage zu stellen. Zur Tarnung betreibt der Motorrad-Club in Charming eine große Werkstatt für Autos und Motorräder, die als Basis dient. Der Club ist in den illegalen Waffenhandel in den gesamten USA sowie in Europa (u. a. mit der Real Irish Republican Army) verstrickt und versucht dies vor allem vor dem ATF geheim zu halten. Neben den Konflikten der einzelnen Personen untereinander spielt auch das Thema Krieg unter rivalisierenden Banden eine große Rolle in der Serie.

 

enthaltene Folgen (Staffel komplett):

Sons.of.Anarchy.S04E01.Blutige.Hochzeit.GERMAN.DUBBED.DL.1080p.BluRay.x264-TVP

Sons.of.Anarchy.S04E02.Kokain.GERMAN.DUBBED.DL.1080p.BluRay.x264-TVP

Sons.of.Anarchy.S04E03.Ameisen.GERMAN.DUBBED.DL.1080p.BluRay.x264-TVP

Sons.of.Anarchy.S04E04.Una.Venta.GERMAN.DUBBED.DL.1080p.BluRay.x264-TVP

Sons.of.Anarchy.S04E05.Brick.GERMAN.DUBBED.DL.1080p.BluRay.x264-TVP

Sons.of.Anarchy.S04E06.With.an.X.GERMAN.DUBBED.DL.1080p.BluRay.x264-TVP

Sons.of.Anarchy.S04E07.Fruit.for.the.Crows.GERMAN.DUBBED.DL.1080p.BluRay.x264-TVP

Sons.of.Anarchy.S04E08.Family.Recipe.GERMAN.DUBBED.DL.1080p.BluRay.x264-TVP

Sons.of.Anarchy.S04E09.Kiss.GERMAN.DUBBED.DL.1080p.BluRay.x264-TVP

Sons.of.Anarchy.S04E10.Hands.GERMAN.DUBBED.DL.1080p.BluRay.x264.REPACK-TVP

Sons.of.Anarchy.S04E11.Call.of.Duty.GERMAN.DUBBED.DL.1080p.BluRay.x264-TVP

Sons.of.Anarchy.S04E12.Burnt.and.Purged.Away.GERMAN.DUBBED.DL.1080p.BluRay.x264-TVP

Sons.of.Anarchy.S04E13.To.Be.Act.1.GERMAN.DUBBED.DL.1080p.BluRay.x264-TVP

Sons.of.Anarchy.S04E14.To.Be.Act.2.GERMAN.DUBBED.DL.1080p.BluRay.x264-TVP NEU



General
Complete name                            : Sons.of.Anarchy.S04E01.Blutige.Hochzeit.GERMAN.DUBBED.DL.1080p.BluRay.x264-TVP\tvp-soa-s04e01-1080p.mkv
Format                                   : Matroska
Format version                           : Version 2
File size                                : 4.45 GiB
Duration                                 : 57mn 19s
Overall bit rate                         : 11.1 Mbps
Movie name                               : Sons.of.Anarchy.S04E01.Blutige.Hochzeit.GERMAN.DUBBED.DL.1080p.BluRay.x264-TVP
Encoded date                             : UTC 2014-04-02 10:38:43
Writing application                      : mkvmerge v5.6.0 ('Kenya Kane') built on May 28 2012 06:47:39
Writing library                          : libebml v1.2.2 + libmatroska v1.3.0

Video
ID                                       : 1
Format                                   : AVC
Format/Info                              : Advanced Video Codec
Format profile                           : High@L4.1
Format settings, CABAC                   : Yes
Format settings, ReFrames                : 4 frames
Codec ID                                 : V_MPEG4/ISO/AVC
Duration                                 : 57mn 19s
Bit rate                                 : 8 953 Kbps
Width                                    : 1 920 pixels
Height                                   : 1 080 pixels
Display aspect ratio                     : 16:9
Frame rate mode                          : Constant
Frame rate                               : 25.000 fps
Original frame rate                      : 23.976 fps
Color space                              : YUV
Chroma subsampling                       : 4:2:0
Bit depth                                : 8 bits
Scan type                                : Progressive
Bits/(Pixel*Frame)                       : 0.173
Stream size                              : 3.68 GiB (83%)
Title                                    : tvp-soa-s04e01-1080p
Writing library                          : x264 core 125 r2208 d9d2288
Encoding settings                        : cabac=1 / ref=4 / deblock=1:0:0 / analyse=0x3:0x113 / me=umh / subme=7 / psy=1 / psy_rd=1.00:0.00 / mixed_ref=1 / me_range=16 / chroma_me=1 / trellis=1 / 8x8dct=1 / cqm=0 / deadzone=21,11 / fast_pskip=0 / chroma_qp_offset=-2 / threads=18 / lookahead_threads=3 / sliced_threads=0 / nr=0 / decimate=1 / interlaced=0 / bluray_compat=0 / constrained_intra=0 / bframes=3 / b_pyramid=2 / b_adapt=1 / b_bias=0 / direct=1 / weightb=1 / open_gop=0 / weightp=2 / keyint=250 / keyint_min=23 / scenecut=40 / intra_refresh=0 / rc_lookahead=40 / rc=2pass / mbtree=1 / bitrate=8953 / ratetol=1.0 / qcomp=0.60 / qpmin=0 / qpmax=69 / qpstep=4 / cplxblur=20.0 / qblur=0.5 / ip_ratio=1.40 / aq=1:1.00
Language                                 : German
Default                                  : Yes
Forced                                   : Yes

Audio #1
ID                                       : 2
Format                                   : AC-3
Format/Info                              : Audio Coding 3
Mode extension                           : CM (complete main)
Format settings, Endianness              : Big
Codec ID                                 : A_AC3
Duration                                 : 57mn 19s
Bit rate mode                            : Constant
Bit rate                                 : 192 Kbps
Channel(s)                               : 2 channels
Channel positions                        : Front: L R
Sampling rate                            : 48.0 KHz
Bit depth                                : 16 bits
Compression mode                         : Lossy
Stream size                              : 78.7 MiB (2%)
Language                                 : German
Default                                  : Yes
Forced                                   : Yes

Audio #2
ID                                       : 3
Format                                   : DTS
Format/Info                              : Digital Theater Systems
Mode                                     : 16
Format settings, Endianness              : Big
Codec ID                                 : A_DTS
Duration                                 : 57mn 19s
Bit rate mode                            : Constant
Bit rate                                 : 1 509 Kbps
Channel(s)                               : 6 channels
Channel positions                        : Front: L C R, Side: L R, LFE
Sampling rate                            : 48.0 KHz
Bit depth                                : 24 bits
Compression mode                         : Lossy
Stream size                              : 619 MiB (14%)
Language                                 : English
Default                                  : No
Forced                                   : No



Download:
Share-Online.biz Share-Online.bizShare-Online.bizShare-Online.biz | Uploaded.net Uploaded.netUploaded.netUploaded.net | OBOOM.com OBOOM.comOBOOM.comOBOOM.com
 

Kommentare