DNS SERVER AENDERNum der staatlichen Zensur zu umgehen. Sollten wir von eurem Provider geseprrt werden, nutzt den TOR BROWSER oder ändert euren DNS SERVER.

Filmwünsche können bei uns im Forum abgegeben werden

Wir Speichern Nicht




 
 
 
Top Releases
Stronger.2017.German.720p.Bl...
Nur.Gott.kann.mich.richten.2...
Nur.Gott.kann.mich.richten.2...
Endspiel.2018.German.DL.Doku...
Endspiel.2018.German.DL.Doku...
Deadpool.2.THEATRiCAL.2018.G...
Deadpool.2.THEATRiCAL.2018.G...
Mercury.13.2018.German.DL.Do...
Mercury.13.2018.German.DL.Do...
Die.Wolken.von.Sils.Maria.20...

Cinedubs
The.Equalizer.2.TS.LD.German...
Der.Hauptmann.2017.German.AA...
Der.Hauptmann.2017.German.AA...
Ghost.Stories.2017.German.AC...
Ghost.Stories.2017.German.AC...
Oceans.8.German.DL.AC3.Dubbe...
Oceans.8.German.DL.AC3.Dubbe...
Hereditary.Das.Vermaechtnis....
Hereditary.Das.Vermaechtnis....
Oceans.8.2018.German.DL.AC3D...

Neuerscheinungen 2017-18
Kings.2017.German.720p.BluRa...
Kings.2017.German.DL.1080p.B...
Winchester.Das.Haus.der.Verd...
Bodycheck.Youngblood.1986.MU...
The.End.2017.GERMAN.DUAL.COM...
The.End.2017.GERMAN.1080p.Bl...
Vater.des.Jahres.2018.German...
The.End.2017.GERMAN.720p.Blu...
Derren.Brown.The.Push.2018.G...
Derren.Brown.The.Push.2018.G...

XXX
WankItNow.17.09.02.Tammie.Le...
TrueAnal.18.08.16.Jillian.Ja...
WildOnCam.18.08.20.Alana.Cru...
WickedPictures.Camera.Angle....
TransAngels.18.08.06.Valenti...
Tiny4K.18.08.16.Chloe.Temple...
WankItNow.17.09.11.Candi.Kay...
WetAndPuffy.18.08.15.Sophia....
VivThomas.18.08.17.Adel.More...
WildOnCam.18.08.21.Melody.Pa...
TransAngels.18.08.13.Domino....
TonightsGirlfriend.18.08.17....
WickedPictures.Camera.Angle....
TrueAnal.18.08.21.Brooke.Ber...
WetAndPissy.18.08.21.Anna.Ra...
Throated.18.08.17.Zoey.Foxx....
Vixen.18.08.17.Emily.Willis....
Time.To.Fuck.XXX.720p.WEBRip...
WhiteGhetto.18.08.21.Lynn.Lo...
TransAngels.18.08.04.Aubrey....

3D
Avengers.Infinity.War.3D.201...
Rampage.Big.Meets.Bigger.3D....
Rampage.Big.Meets.Bigger.3D....
Rampage.Big.Meets.Bigger.3D....
Winter.Games.3D.2013.DUAL.CO...
Tomb.Raider.3D.2018.German.7...
Rampage.Big.Meets.Bigger.3D....
Rampage.Big.Meets.Bigger.3D....
Tomb.Raider.3D.2018.MULTi.CO...
Pacific.Rim.Uprising.3D.2018...
Ready.Player.One.3D.2018.Ger...
Rampage.-.Big.Meets.Bigger.2...
Ready.Player.One.2018.3D.HOU...
Ready.Player.One.2018.3D.HSB...
Ready.Player.One.3D.2018.MUL...

Old_Stuff
21.2008.German.DL.1080p.BluR...
Achtung.fertig.WK.Swissgerma...
The.Ouija.Exorcism.2015.MULT...
Meine.liebe.Rabenmutter.germ...
Da.Vincis.Demons.S01.Complet...
Eragon.Das.Vermaechtnis.der....
Adele.und.das.Geheimnis.des....
Die.fabelhafte.Welt.der.Amel...
Haus.des.Geldes.S01.German.M...
How.I.Met.Your.Mother.S01.Ge...
The.Dark.Knight.Rises.2012.M...
Weissensee.S03.2015.GERMAN.C...
Weissensee.S01+S02.2010.GERM...
Die.Unglaublichen.-.The.Incr...
Der.grosse.Trick.1978.German...

Filme
Missions.S01.GERMAN.DUBBED.7...
Narcos.S03.COMPLETE.German.D...
Gone.Baby.Gone.2007.German.D...
London.Boulevard.2010.German...
Celeste.und.Jesse.German.DL....
CBGB.2013.GERMAN.AC3D.DL.108...
Unsere.Erde.2.2017.German.DT...
Unsere.Erde.2.2017.German.DT...
Unsere.Erde.2.2017.German.DT...
Winchester.Das.Haus.der.Verd...
Cabal.-.Die.Brut.der.Nacht.C...
Car.Wash.1976.German.AC3D.DL...
Feuer.ueber.England.1937.Ger...
Sin.City.2005.DTS-HD.German....
Elliot.das.Schmunzelmonster....
Nur.fuer.Offiziere.1964.Germ...
The.Last.Man.On.Earth.S04.Ge...
The.Last.Man.On.Earth.S04.Ge...
Arrow.S06.GERMAN.DL.1080p.HD...
Arrow.S06.GERMAN.DL.720p.HDT...
Razorback.Kampfkoloss.der.Ho...
Rails.and.Ties.-.Aufbruch.in...
Deadpool.2.Super.Duper.Cut.2...
Passenger.Legs.of.Steel.2015...

 
 
Sons.of.Anarchy.S03.COMPLETE.German.DL.720p.BluRay.x264-iNTENTiON

Jahr: 2010
Genre: Krimi | Drama | Thriller
Sprache: Deutsch DTS | Englisch AC3
Laufzeit: 41min je Folge
Bitrate: 3000 Kbps
Format: MKV
Größe: 1,5 GB je Folge
Release:

Beschreibung:

Wann ist das Dasein als Renegade zu einem einfachen Geschäft verkommen? Wann ist der Ehrenkodex der Gesetzlosen zu einer aussterbenden Art geworden? In Charming, Kalifornien, gibt es noch eine Spielart von diesem viel gerühmten Gesetz. Über die fiktive Kleinstadt in der Wüste herrscht die Motorradgang „Sons of Anarchy“. Aber es ist mehr als nur eine Gang oder ein Motorradclub, es ist eine Bruderschaft, eine Familie. Wie jede anständige Gang betreibt auch diese Waffenhandel und ein paar andere illegale Geschäfte. Ehre ist eben teuer, Familie auch. Auch wenn es bei dem Namen etwas paradox erscheint haben die Söhne der Anarchie strenge Regeln, nach denen sie leben.



General
Sons.of.Anarchy.S03E01.German.DL.720p.BluRay.x264-iNTENTiON\sons.of.anarchy.s03e01.german.dl.720p.bluray.x264-intention.mkv
Format                                   : Matroska
Format version                           : Version 2
File size                                : 1.54 GiB
Duration                                 : 49mn 47s
Overall bit rate                         : 4 438 Kbps
Writing application                      : mkvmerge v4.1.1 ('Bouncin' Back') built on Jul  3 2010 22:54:08
Writing library                          : libebml v1.0.0 + libmatroska v1.0

Video
ID                                       : 1
Format                                   : AVC
Format/Info                              : Advanced Video Codec
Format profile                           : High@L4.1
Format settings, CABAC                   : Yes
Format settings, ReFrames                : 5 frames
Codec ID                                 : V_MPEG4/ISO/AVC
Duration                                 : 49mn 47s
Bit rate                                 : 2 942 Kbps
Width                                    : 1 280 pixels
Height                                   : 720 pixels
Display aspect ratio                     : 16:9
Frame rate mode                          : Constant
Frame rate                               : 23.976 fps
Color space                              : YUV
Chroma subsampling                       : 4:2:0
Bit depth                                : 8 bits
Scan type                                : Progressive
Bits/(Pixel*Frame)                       : 0.133
Stream size                              : 1.02 GiB (66%)
Writing library                          : x264 core 140 r2377 1ca7bb9
Encoding settings                        : cabac=1 / ref=5 / deblock=1:-3:-3 / analyse=0x3:0x133 / me=umh / subme=7 / psy=1 / psy_rd=1.00:0.15 / mixed_ref=1 / me_range=16 / chroma_me=1 / trellis=1 / 8x8dct=1 / cqm=0 / deadzone=21,11 / fast_pskip=0 / chroma_qp_offset=-3 / threads=12 / lookahead_threads=2 / sliced_threads=0 / nr=0 / decimate=1 / interlaced=0 / bluray_compat=0 / constrained_intra=0 / bframes=3 / b_pyramid=2 / b_adapt=1 / b_bias=0 / direct=3 / weightb=1 / open_gop=0 / weightp=2 / keyint=240 / keyint_min=23 / scenecut=40 / intra_refresh=0 / rc_lookahead=40 / rc=crf / mbtree=1 / crf=20.0 / qcomp=0.60 / qpmin=0 / qpmax=69 / qpstep=4 / ip_ratio=1.40 / aq=1:1.00
Language                                 : English
Default                                  : Yes
Forced                                   : No

Audio #1
ID                                       : 2
Format                                   : DTS
Format/Info                              : Digital Theater Systems
Mode                                     : 16
Format settings, Endianness              : Big
Codec ID                                 : A_DTS
Duration                                 : 49mn 47s
Bit rate mode                            : Constant
Bit rate                                 : 768 Kbps
Channel(s)                               : 6 channels
Channel positions                        : Front: L C R, Side: L R, LFE
Sampling rate                            : 48.0 KHz
Bit depth                                : 24 bits
Compression mode                         : Lossy
Stream size                              : 273 MiB (17%)
Title                                    : DTS
Language                                 : German
Default                                  : Yes
Forced                                   : No

Audio #2
ID                                       : 3
Format                                   : AC-3
Format/Info                              : Audio Coding 3
Mode extension                           : CM (complete main)
Format settings, Endianness              : Big
Codec ID                                 : A_AC3
Duration                                 : 49mn 47s
Bit rate mode                            : Constant
Bit rate                                 : 640 Kbps
Channel(s)                               : 6 channels
Channel positions                        : Front: L C R, Side: L R, LFE
Sampling rate                            : 48.0 KHz
Bit depth                                : 16 bits
Compression mode                         : Lossy
Stream size                              : 228 MiB (14%)
Title                                    : AC3
Language                                 : English
Default                                  : Yes
Forced                                   : No

Menu
00:00:00.000                             : en:00:00:00.000
00:06:16.668                             : en:00:06:16.668
00:11:41.993                             : en:00:11:41.993
00:16:10.261                             : en:00:16:10.261
00:17:46.273                             : en:00:17:46.273
00:22:16.418                             : en:00:22:16.418
00:28:20.574                             : en:00:28:20.574
00:32:32.033                             : en:00:32:32.033
00:35:34.299                             : en:00:35:34.299
00:39:17.146                             : en:00:39:17.146
00:41:47.421                             : en:00:41:47.421
00:44:48.311                             : en:00:44:48.311



Download:
Share-Online.biz Share-Online.bizShare-Online.bizShare-Online.biz | Uploaded.net Uploaded.netUploaded.netUploaded.net | Cloudzer.net Cloudzer.netCloudzer.netCloudzer.net
 

Kommentare