HD-AREA wünscht euch eine besinnliche Weihnachtszeit ;)

DNS SERVER AENDERNum der staatlichen Zensur zu umgehen. Sollten wir von eurem Provider geseprrt werden, nutzt den TOR BROWSER oder ändert euren DNS SERVER.

Filmwünsche können bei uns im Forum abgegeben werden

Wir Speichern Nicht




 
 
 
Top Releases
Ballerina.ihr.Traum.vom.Bols...
Am.Strand.2017.German.AC3D.D...
Die.Legende.der.Waechter.201...
Die.Legende.der.Waechter.201...
Bad.Spies.2018.German.DL.108...
Bad.Spies.2018.German.DL.108...
Bad.Spies.2018.German.720p.B...
Bad.Spies.2018.MULTi.COMPLET...
Brotherhood.of.Blades.2.2017...
Brotherhood.of.Blades.2.2017...

Cinedubs
Aquaman.TS.LD.German.DL.720p...
Eho.Echo.German.720p.WEBRip....
Eho.Echo.German.1080p.WEBRip...
Bad.Times.at.the.El.Royale.2...
Bad.Spies.2018.German.DL.AC3...
Aquaman.2018.GERMAN.AC3.MD.7...
Bad.Spies.German.DL.AC3.Dubb...
Bad.Spies.German.DL.AC3.Dubb...
Bad.Times.at.the.El.Royale.G...
Bad.Times.at.the.El.Royale.G...

Neuerscheinungen 2018-19
The.Curse.1987.DUAL.COMPLETE...
Solis.2018.DUAL.COMPLETE.BLU...
Beaufort.2007.German.1080p.B...
Beaufort.2007.German.DL.1080...
Venom.2018.German.DTSD.7.1.D...
Der.Koenig.und.ich.1956.GERM...
Ben.1972.DUAL.COMPLETE.BLURA...
In.Love.and.War.1996.German....
Der.Teufelsschrei.Evilspeak....
Der.Teufelsschrei.THEATRICAL...

XXX
ZeroTolerance.18.12.15.Karma...
ZeroTolerance.18.12.16.Sadie...
WetAndPissy.18.11.20.Kate.Fr...
ZeroTolerance.18.11.15.Whitn...
WeLiveTogether.18.12.16.Demi...
WickedPictures.Whos.Banging....
Yanks.18.11.20.Azrael.Philos...
ZeroTolerance.18.11.13.Anna....
WildOnCam.18.12.17.Kenzi.Rya...
ZeroTolerance.18.11.16.Casey...
XXXShades.18.12.16.Elena.Veg...
WickedPictures.Axel.Brauns.N...
WetAndPissy.18.12.17.Vanessa...
WildOnCam.18.11.19.Britney.A...
WildOnCam.18.11.20.Dava.Foxx...
ZeroTolerance.18.12.14.Eliza...
WildOnCam.18.12.18.Avi.Love....
ZeroTolerance.Whos.Your.Step...
Vixen.18.11.20.Jia.Lissa.And...
VickyAtHome.18.11.11.Brittan...

3D
Limbradur.und.die.Magie.der....
Kaluoka.Hina.Das.Zauberriff....
Limbradur.und.die.Magie.der....
Smallfoot.3D.2018.COMPLETE.B...
Smallfoot.Ein.eisigartiges.A...
Skyscraper.3D.2018.German.DL...
Meg.3D.2018.MULTi.COMPLETE.B...
Meg.3D.2018.German.DL.1080p....
Gans.im.Glueck.3D.2018.MULTi...
The.Art.of.Flight.3D.2011.Ge...
The.End.Of.The.World.3D.2010...
The.First.Avenger.Civil.War....
Die.Unglaublichen.2.2018.3D....
Skyscraper.3D.2018.MULTi.COM...
Ant-Man.And.The.Wasp.3D.2018...

Old_Stuff
Akte.X.S05.German.DTS.DL.108...
Akte.X.S04.German.DTS.DL.108...
Akte.X.S03.German.DTS.DL.108...
Dunkirk.1958.COMPLETE.BLURAY...
Das.Wunder.von.Manhattan.199...
The.Amazing.Spiderman.2.Rise...
Rise.of.the.Predator.2014.Ge...
Detective.Dee.und.das.Geheim...
Detective.Dee.Und.Der.Fluch....
Ghost.Rider.Spirit.of.Vengea...
Species.IV.Das.Erwachen.2007...
Species.IV.Das.Erwachen.2007...
Hotel.Transsilvanien.2012.Ge...
The.Dead.2010.German.DL.1080...
The.Dead.2.India.2013.German...

Filme
Killjoys.S04.GERMAN.DL.1080p...
Killjoys.S04.GERMAN.DL.720p....
The.100.S05.GERMAN.DUBBED.DL...
The.100.S05.GERMAN.DUBBED.72...
Aschenputtels.Fussstapfen.GE...
Dianas.Tod.Sieben.Tage.die.d...
Dianas.Tod.Sieben.Tage.die.d...
Schmerzensgeld.Wer.reich.sei...
Die.Suche.nach.Atlantis.GERM...
Doctor.Strange.2016.German.A...
Ein.Braeutigam.zu.viel.2015....
Die.Suche.nach.Atlantis.GERM...
Die.Seven.Ups.1973.German.DL...
Wild.Tales.-.Jeder.Dreht.Mal...
Der.Sezierer.2011.German.DL....
Steel.Buddies.Die.Auktion.GE...
Papa.gibt.Gas.-.Eine.Familie...
Cronos.1993.German.AC3D.DL.1...
Terra.X.Abenteuer.Winter.-.T...
Constantine.City.of.Demons.T...
Die.Gluecksjaeger.1989.Germa...
Immer.lustig.Unsere.Komiker....
Bad.Spies.2018.German.DL.DTS...
Die.Hits.der.90er.Von.Matthi...

 
 
Killjoys.S04.GERMAN.DL.720p.HDTV.x264-MDGP

Jahr: 2018
Genre: Action | Abenteuer | Sci-Fi
Sprache: Deutsch AC3 | Englisch AC3
Laufzeit: 41min je Folge
Bitrate: 1700 Kbps
Format: MKV
Größe: 700 MB je Folge
Release:

Beschreibung:

In der kanadischen Serie „Killjoys“ finden sich drei lebenslustige Kopfgeldjäger, die den Quadranten nach gefährlichen Kriminellen durchforsten, inmitten eines interplanetaren Klassenkampfes wieder. Hannah John-Kamen, Aaron Ashmore sowie Luke MacFarlane werden dabei zur hartgesottenen Bounty-Hunter-Crew. Hannah John-Kamen spielt die atemberaubende, komplizierte und tödliche Dutch. Sie ist ein Spitzen-„Killjoy“ und sehr beliebt in ihrer Heimat. Sie versteht es, das Vertrauen anderer zu gewinnen und gilt als besonders charmant. Dabei unterscheidet sie auch niemanden aufgrund seiner Klasse oder Herkunft. Obwohl sie gerne Sprüche klopft und spielerisch flirtet, versteckt sie eine gequälte und reifere Seite, die sich auf ihre dunkle, geheime Vergangenheit zurückführen lässt.

 

enthaltene Folgen:

Killjoys.S04E01.Der.erste.Auftrag.GERMAN.DL.720p.HDTV.x264-MDGP

Killjoys.S04E02.Die.Umwandlung.GERMAN.DL.720p.HDTV.x264-MDGP

Killjoys.S04E03.Die.Geburt.GERMAN.DL.720p.HDTV.x264-MDGP

Killjoys.S04E04.Elternglueck.GERMAN.DL.720p.HDTV.x264-MDGP

Killjoys.S04E05.Das.Riesenbaby.GERMAN.DL.720p.HDTV.x264-MDGP

Killjoys.S04E06.Die.Spinne.GERMAN.DL.720p.HDTV.x264-MDGP NEU



General
Complete name                            : Killjoys.S04E01.Der.erste.Auftrag.GERMAN.DL.720p.HDTV.x264-MDGP\mdgp-killjoyss04e01-720p.mkv
Format                                   : Matroska
Format version                           : Version 4 / Version 2
File size                                : 693 MiB
Duration                                 : 41mn 19s
Overall bit rate                         : 2 346 Kbps
Encoded date                             : UTC 2018-12-05 22:24:00
Writing application                      : mkvmerge v7.7.0 ('Six Voices') 64bit built on Feb 28 2015 23:39:33
Writing library                          : libebml v1.3.1 + libmatroska v1.4.2
DURATION                                 : 00:41:19.136000000
NUMBER_OF_FRAMES                         : 77473
NUMBER_OF_BYTES                          : 59499264
_STATISTICS_WRITING_APP                  : mkvmerge v7.7.0 ('Six Voices') 64bit built on Feb 28 2015 23:39:33
_STATISTICS_WRITING_DATE_UTC             : 2018-12-05 22:24:00
_STATISTICS_TAGS                         : BPS DURATION NUMBER_OF_FRAMES NUMBER_OF_BYTES

Video
ID                                       : 1
Format                                   : AVC
Format/Info                              : Advanced Video Codec
Format profile                           : High@L4.1
Format settings, CABAC                   : Yes
Format settings, ReFrames                : 5 frames
Codec ID                                 : V_MPEG4/ISO/AVC
Duration                                 : 41mn 19s
Bit rate                                 : 1 723 Kbps
Width                                    : 1 280 pixels
Height                                   : 720 pixels
Display aspect ratio                     : 16:9
Frame rate mode                          : Constant
Frame rate                               : 25.000 fps
Color space                              : YUV
Chroma subsampling                       : 4:2:0
Bit depth                                : 8 bits
Scan type                                : Progressive
Bits/(Pixel*Frame)                       : 0.075
Stream size                              : 509 MiB (73%)
Writing library                          : x264 core 157 r2935 545de2f
Encoding settings                        : cabac=1 / ref=5 / deblock=1:-3:-3 / analyse=0x3:0x113 / me=umh / subme=7 / psy=1 / psy_rd=1.00:0.00 / mixed_ref=1 / me_range=16 / chroma_me=1 / trellis=1 / 8x8dct=1 / cqm=0 / deadzone=21,11 / fast_pskip=0 / chroma_qp_offset=-2 / threads=12 / lookahead_threads=2 / sliced_threads=0 / nr=0 / decimate=1 / interlaced=0 / bluray_compat=0 / constrained_intra=0 / bframes=3 / b_pyramid=2 / b_adapt=1 / b_bias=0 / direct=1 / weightb=1 / open_gop=0 / weightp=2 / keyint=250 / keyint_min=25 / scenecut=40 / intra_refresh=0 / rc_lookahead=40 / rc=crf / mbtree=1 / crf=20.0 / qcomp=0.60 / qpmin=0 / qpmax=69 / qpstep=4 / ip_ratio=1.40 / aq=1:1.00
Language                                 : German
Default                                  : Yes
Forced                                   : No
Color primaries                          : BT.709
Transfer characteristics                 : BT.709
Matrix coefficients                      : BT.709

Audio #1
ID                                       : 2
Format                                   : AC-3
Format/Info                              : Audio Coding 3
Mode extension                           : CM (complete main)
Format settings, Endianness              : Big
Codec ID                                 : A_AC3
Duration                                 : 41mn 19s
Bit rate mode                            : Constant
Bit rate                                 : 384 Kbps
Channel(s)                               : 2 channels
Channel positions                        : Front: L R
Sampling rate                            : 48.0 KHz
Bit depth                                : 16 bits
Compression mode                         : Lossy
Stream size                              : 113 MiB (16%)
Language                                 : German
Default                                  : Yes
Forced                                   : No

Audio #2
ID                                       : 3
Format                                   : AC-3
Format/Info                              : Audio Coding 3
Mode extension                           : CM (complete main)
Format settings, Endianness              : Big
Codec ID                                 : A_AC3
Duration                                 : 41mn 19s
Bit rate mode                            : Constant
Bit rate                                 : 192 Kbps
Channel(s)                               : 2 channels
Channel positions                        : Front: L R
Sampling rate                            : 48.0 KHz
Bit depth                                : 16 bits
Compression mode                         : Lossy
Stream size                              : 56.7 MiB (8%)
Language                                 : English
Default                                  : No
Forced                                   : No



Download:
Share-Online.biz Share-Online.bizShare-Online.bizShare-Online.biz | Rapidgator.net Rapidgator.netRapidgator.netRapidgator.net
 

Kommentare