Filecrypt zeigt vereinzelt Files als "n/a". Die Downloads sind trotzdem komplett.

DNS SERVER AENDERNum der staatlichen Zensur zu umgehen. Sollten wir von eurem Provider geseprrt werden, nutzt den TOR BROWSER oder ändert euren DNS SERVER.

Filmwünsche können bei uns im Forum abgegeben werden

Wir Speichern Nicht




 
 
 
Top Releases
Logan.The.Wolverine.2017.NOI...
Mandy.2018.German.DL.1080p.B...
Mandy.2018.MULTi.COMPLETE.BL...
Zoe.2018.German.AC3.DL.1080p...
Herrliche.Zeiten.2018.German...
Skyscraper.2018.German.AC3.D...
Mandy.2018.German.720p.BluRa...
Mandy.2018.German.DL.1080p.B...
Die.Farbe.des.Horizonts.2018...
Die.Farbe.des.Horizonts.2018...

Cinedubs
Christopher.Robin.German.DL....
Christopher.Robin.German.DL....
A.Star.Is.Born.German.DL.AC3...
A.Star.Is.Born.German.DL.AC3...
Mission.Impossible.Fallout.G...
Mission.Impossible.Fallout.G...
Sicario.2.2018.German.DL.AC3...
Juliet.Naked.2018.GERMAN.DL....
Juliet.Naked.2018.GERMAN.DL....
10x10.2018.German.AC3D.DL.10...

Neuerscheinungen 2017-18
Skyscraper.2018.MULTi.COMPLE...
Hardcover.1989.German.DL.108...
O.Sexuelles.Verlangen.2017.D...
O.Sexuelles.Verlangen.2017.G...
O.Sexuelles.Verlangen.2017.G...
Christmas.With.A.View.2018.G...
Christmas.With.A.View.2018.G...
Our.Evil.2017.GERMAN.1080p.B...
Our.Evil.2017.GERMAN.720p.Bl...
Bent.Korruption.kennt.keine....

XXX
GirlsDoPorn.E481.19.Years.Ol...
GirlsDoPorn.E479.19.Years.Ol...
MetArtX.18.10.28.Alice.Shea....
MomKnowsBest.18.10.29.Alex.D...
MilfsLikeItBig.18.10.29.Arie...
GirlsDoPorn.E478.22.Years.Ol...
LittleCapriceDreams.18.10.26...
LustyGrandmas.18.02.22.Sally...
LustyGrandmas.18.02.08.Red.M...
LustyGrandmas.18.02.15.Viol....
Kemaco.27.XXX.1080p.WEBRip.M...
Lustery.E144.Natalie.And.Rya...
Lustery.E145.Luna.And.James....
Kemaco.27.XXX.720p.WEBRip.MP...
MetArtX.18.10.30.Sade.Mare.T...
MommyBlowsBest.18.10.31.Mari...
MomDrips.18.10.28.India.Summ...
GirlsDoPorn.E480.20.Years.Ol...
KarupsPC.18.10.27.Izzy.Delph...
MikesApartment.18.10.30.Lara...

3D
Skyscraper.3D.2018.MULTi.COM...
Ant-Man.And.The.Wasp.3D.2018...
Ant.Man.and.the.Wasp.3D.2018...
Die.Unglaublichen.2.3D.2018....
Die.Unglaublichen.2.2018.3D....
Die.Unglaublichen.2.2018.3D....
Sharknado.6.The.Last.One.3D....
Deep.Kleine.Helden.der.Tiefs...
Deep.3D.2017.MULTI.COMPLETE....
Detective.Dee.und.die.Legend...
Detective.Dee.und.die.Legend...
Skyscraper.3D.German.DL.AC3....
Ant-Man.and.the.Wasp.2018.3D...
Jurassic.World.Das.gefallene...
Jurassic.World.Das.gefallene...

Old_Stuff
Detective.Dee.und.das.Geheim...
Detective.Dee.Und.Der.Fluch....
Ghost.Rider.Spirit.of.Vengea...
Species.IV.Das.Erwachen.2007...
Species.IV.Das.Erwachen.2007...
Hotel.Transsilvanien.2012.Ge...
The.Dead.2010.German.DL.1080...
The.Dead.2.India.2013.German...
Britney.Spears.Live.The.Femm...
Buffy.The.Vampire.Slayer.199...
IMAX.Ride.Around.The.World.2...
Schimanski.-.Duisburg.Ruhror...
Akte.X.S02.German.DTS.DL.108...
How.I.Met.Your.Mother.S02.Ge...
Akte.X.S01.German.DTS.DL.108...

Filme
To.Kill.a.Man.Rache.ist.bitt...
TJ.Next.Generation.2007.Germ...
TO.A.Space.Fantasy.2009.Germ...
Urlaub.in.Hollywood.1945.Ger...
Mamma.Mia.Here.We.Go.Again.2...
Tinkerbell.2008.German.DTS.D...
Tintenherz.German.DL.1080p.B...
Tisch.und.Bett.1970.German.1...
The.Legend.of.Hercules.2014....
Maleika.2017.GERMAN.DOKU.216...
The.Darkest.Minds.Die.Ueberl...
Aus.dem.Dschungel.in.den.Dsc...
Der.Grosse.Diktator.1940.Ger...
Plaesier.1952.German.AC3D.DL...
Die.Truman.Show.1998.German....
Crocodile.Dundee.Extended.Cu...
Valley.Girl.Das.Maedchen.und...
TiMER.2009.German.DL.1080p.B...
Time.to.Kill.1989.German.108...
Time.Rush.2016.German.DL.108...
Time.for.Crime.Zeit.fuer.Bet...
Time.Bandits.German.1981.108...
Wrong.Side.of.Town.2010.Germ...
Time.and.Tide.2000.German.10...

 
 
Logan.The.Wolverine.2017.NOIR.EDITION.German.DL.DTSD.1080p.BluRay.x264-GSG9_iNT

Jahr: 2017
Genre: Action, Drama, Sci-Fi
Sprache: Deutsch DTS | Englisch DTS
Laufzeit: 2h 17mn
Bitrate: 6 335 Kbps
Format: MKV
Größe: 6.08 GiB
Release:

Beschreibung:

In der Welt des Jahres 2029 sind Mutanten Geschichte, beinahe jedenfalls: Der gealterte Logan alias Wolverine (Hugh Jackman) ist einer der wenigen verbleibenden Menschen mit außergewöhnlichen Kräften und verbringt seine Tage an einem verlassenen Flecken Erde nahe der Grenze zu Mexiko, wo er sein Geld als Fahrer verdient und ihm nur zwei weitere Mutanten Gesellschaft leisten: Caliban (Stephen Merchant) und Charles Xavier alias Professor X (Patrick Stewart), dessen einst so brillanter und mächtiger Verstand von regelmäßigen Anfällen heimgesucht wird. Doch Logans selbstauferlegtes Exil endet eines Tages abrupt, als eine mysteriöse Frau ihn darum bittet, sich um die junge Mutantin Laura (Dafne Keen) zu kümmern und diese in Sicherheit zu bringen. Bald schon muss sich der krallenbewehrte Krieger mit dunklen Mächten und einem Bösewicht aus seiner eigenen Vergangenheit auseinandersetzen, um Laura zu beschützen

 

NOIR EDITION = SCHWARZ WEIß

 



Complete name                            : logan.the.wolverine.2017.noir.edition.german.dl.dtsd.1080p.bluray.x264-gsg9.mkv
Format                                   : Matroska
Format version                           : Version 2
File size                                : 6.08 GiB
Duration                                 : 2h 17mn
Overall bit rate                         : 6 335 Kbps
Writing application                      : mkvmerge v4.1.1 ('Bouncin' Back') built on Jul  3 2010 22:54:08
Writing library                          : libebml v1.0.0 + libmatroska v1.0

Video
ID                                       : 1
Format                                   : AVC
Format/Info                              : Advanced Video Codec
Format profile                           : High@L4.1
Format settings, CABAC                   : Yes
Format settings, ReFrames                : 5 frames
Codec ID                                 : V_MPEG4/ISO/AVC
Duration                                 : 2h 17mn
Bit rate                                 : 3 932 Kbps
Width                                    : 1 920 pixels
Height                                   : 808 pixels
Display aspect ratio                     : 2.40:1
Frame rate mode                          : Constant
Frame rate                               : 23.976 fps
Color space                              : YUV
Chroma subsampling                       : 4:2:0
Bit depth                                : 8 bits
Scan type                                : Progressive
Bits/(Pixel*Frame)                       : 0.106
Stream size                              : 3.77 GiB (62%)
Writing library                          : x264 core 157 r2935 545de2f
Encoding settings                        : cabac=1 / ref=5 / deblock=1:-3:-3 / analyse=0x3:0x133 / me=umh / subme=7 / psy=1 / psy_rd=1.00:0.15 / mixed_ref=1 / me_range=16 / chroma_me=1 / trellis=1 / 8x8dct=1 / cqm=0 / deadzone=21,11 / fast_pskip=0 / chroma_qp_offset=-3 / threads=12 / lookahead_threads=2 / sliced_threads=0 / nr=0 / decimate=1 / interlaced=0 / bluray_compat=0 / constrained_intra=0 / bframes=3 / b_pyramid=2 / b_adapt=2 / b_bias=0 / direct=3 / weightb=1 / open_gop=0 / weightp=2 / keyint=240 / keyint_min=24 / scenecut=40 / intra_refresh=0 / rc_lookahead=50 / rc=crf / mbtree=1 / crf=20.0 / qcomp=0.60 / qpmin=0 / qpmax=69 / qpstep=4 / ip_ratio=1.40 / aq=1:1.00
Language                                 : English
Default                                  : Yes
Forced                                   : No

Audio #1
ID                                       : 2
Format                                   : DTS
Format/Info                              : Digital Theater Systems
Mode                                     : 16
Format settings, Endianness              : Big
Codec ID                                 : A_DTS
Duration                                 : 2h 17mn
Bit rate mode                            : Constant
Bit rate                                 : 768 Kbps
Channel(s)                               : 6 channels
Channel positions                        : Front: L C R, Side: L R, LFE
Sampling rate                            : 48.0 KHz
Bit depth                                : 24 bits
Compression mode                         : Lossy
Stream size                              : 755 MiB (12%)
Language                                 : German
Default                                  : Yes
Forced                                   : No

Audio #2
ID                                       : 3
Format                                   : DTS
Format/Info                              : Digital Theater Systems
Mode                                     : 16
Format settings, Endianness              : Big
Codec ID                                 : A_DTS
Duration                                 : 2h 17mn
Bit rate mode                            : Constant
Bit rate                                 : 1 509 Kbps
Channel(s)                               : 6 channels
Channel positions                        : Front: L C R, Side: L R, LFE
Sampling rate                            : 48.0 KHz
Bit depth                                : 24 bits
Compression mode                         : Lossy
Stream size                              : 1.45 GiB (24%)
Language                                 : English
Default                                  : Yes
Forced                                   : No


Download:
Share Online Share OnlineShare OnlineShare Online
 

Kommentare