Filecrypt zeigt vereinzelt Files als "n/a". Die Downloads sind trotzdem komplett.

DNS SERVER AENDERNum der staatlichen Zensur zu umgehen. Sollten wir von eurem Provider geseprrt werden, nutzt den TOR BROWSER oder ändert euren DNS SERVER.

Filmwünsche können bei uns im Forum abgegeben werden

Wir Speichern Nicht




 
 
 
Top Releases
Mandy.2018.MULTi.COMPLETE.BL...
Zoe.2018.German.AC3.DL.1080p...
Herrliche.Zeiten.2018.German...
Skyscraper.2018.German.AC3.D...
Mandy.2018.German.720p.BluRa...
Mandy.2018.German.DL.1080p.B...
Die.Farbe.des.Horizonts.2018...
Die.Farbe.des.Horizonts.2018...
Die.Farbe.des.Horizonts.2018...
Predestination.2014.German.A...

Cinedubs
Christopher.Robin.German.DL....
Christopher.Robin.German.DL....
A.Star.Is.Born.German.DL.AC3...
A.Star.Is.Born.German.DL.AC3...
Mission.Impossible.Fallout.G...
Mission.Impossible.Fallout.G...
Sicario.2.2018.German.DL.AC3...
Juliet.Naked.2018.GERMAN.DL....
Juliet.Naked.2018.GERMAN.DL....
10x10.2018.German.AC3D.DL.10...

Neuerscheinungen 2017-18
Skyscraper.2018.MULTi.COMPLE...
Hardcover.1989.German.DL.108...
O.Sexuelles.Verlangen.2017.D...
O.Sexuelles.Verlangen.2017.G...
O.Sexuelles.Verlangen.2017.G...
Christmas.With.A.View.2018.G...
Christmas.With.A.View.2018.G...
Our.Evil.2017.GERMAN.1080p.B...
Our.Evil.2017.GERMAN.720p.Bl...
Bent.Korruption.kennt.keine....

XXX
GirlsDoPorn.E481.19.Years.Ol...
GirlsDoPorn.E479.19.Years.Ol...
MetArtX.18.10.28.Alice.Shea....
MomKnowsBest.18.10.29.Alex.D...
MilfsLikeItBig.18.10.29.Arie...
GirlsDoPorn.E478.22.Years.Ol...
LittleCapriceDreams.18.10.26...
LustyGrandmas.18.02.22.Sally...
LustyGrandmas.18.02.08.Red.M...
LustyGrandmas.18.02.15.Viol....
Kemaco.27.XXX.1080p.WEBRip.M...
Lustery.E144.Natalie.And.Rya...
Lustery.E145.Luna.And.James....
Kemaco.27.XXX.720p.WEBRip.MP...
MetArtX.18.10.30.Sade.Mare.T...
MommyBlowsBest.18.10.31.Mari...
MomDrips.18.10.28.India.Summ...
GirlsDoPorn.E480.20.Years.Ol...
KarupsPC.18.10.27.Izzy.Delph...
MikesApartment.18.10.30.Lara...

3D
Skyscraper.3D.2018.MULTi.COM...
Ant-Man.And.The.Wasp.3D.2018...
Ant.Man.and.the.Wasp.3D.2018...
Die.Unglaublichen.2.3D.2018....
Die.Unglaublichen.2.2018.3D....
Die.Unglaublichen.2.2018.3D....
Sharknado.6.The.Last.One.3D....
Deep.Kleine.Helden.der.Tiefs...
Deep.3D.2017.MULTI.COMPLETE....
Detective.Dee.und.die.Legend...
Detective.Dee.und.die.Legend...
Skyscraper.3D.German.DL.AC3....
Ant-Man.and.the.Wasp.2018.3D...
Jurassic.World.Das.gefallene...
Jurassic.World.Das.gefallene...

Old_Stuff
Detective.Dee.und.das.Geheim...
Detective.Dee.Und.Der.Fluch....
Ghost.Rider.Spirit.of.Vengea...
Species.IV.Das.Erwachen.2007...
Species.IV.Das.Erwachen.2007...
Hotel.Transsilvanien.2012.Ge...
The.Dead.2010.German.DL.1080...
The.Dead.2.India.2013.German...
Britney.Spears.Live.The.Femm...
Buffy.The.Vampire.Slayer.199...
IMAX.Ride.Around.The.World.2...
Schimanski.-.Duisburg.Ruhror...
Akte.X.S02.German.DTS.DL.108...
How.I.Met.Your.Mother.S02.Ge...
Akte.X.S01.German.DTS.DL.108...

Filme
Mamma.Mia.Here.We.Go.Again.2...
Tinkerbell.2008.German.DTS.D...
Tintenherz.German.DL.1080p.B...
Tisch.und.Bett.1970.German.1...
The.Legend.of.Hercules.2014....
Maleika.2017.GERMAN.DOKU.216...
The.Darkest.Minds.Die.Ueberl...
Aus.dem.Dschungel.in.den.Dsc...
Der.Grosse.Diktator.1940.Ger...
Plaesier.1952.German.AC3D.DL...
Die.Truman.Show.1998.German....
Crocodile.Dundee.Extended.Cu...
Valley.Girl.Das.Maedchen.und...
TiMER.2009.German.DL.1080p.B...
Time.to.Kill.1989.German.108...
Time.Rush.2016.German.DL.108...
Time.for.Crime.Zeit.fuer.Bet...
Time.Bandits.German.1981.108...
Wrong.Side.of.Town.2010.Germ...
Time.and.Tide.2000.German.10...
Tigerman.1990.German.DL.1080...
Chinesisches.Roulette.1976.G...
Falling.Up.Liebe.oeffnet.Tue...
Spider-Man.2002.UHD2BD.DL.10...

 
 
Mamma.Mia.Here.We.Go.Again.2018.German.DL.1080p.BluRay.x264-BluRHD

Jahr: 2018
Genre: Komödie
Sprache: Deutsch AC3 | Englisch AC3
Laufzeit: 1h 53mn
Bitrate: 15.0 Mbps
Format: MKV
Größe: 11.9 GiB
Release:

Beschreibung:

Ein weiterer sonniger Tag neigt sich auf der griechischen Insel Kalokairi dem Ende, doch Sophie (Amanda Seyfried) macht sich trotzdem große Sorgen. Sie steht kurz vor der Eröffnung ihres Hotels Bella Donna, doch weder ihr Freund Sky (Dominic Cooper) noch ihre zwei Väter Harry (Colin Firth) und Bill (Stellan Skarsgard) können dabei sein. Nur Sam (Pierce Brosnan) ist nach den Ereignissen von Mamma Mia! auf der Insel geblieben und hat Sophie unterstützt. Wenigstens Tanya (Christine Baranski) und Rosie (Julie Walters) sind da, um Sophie unter die Arme zu greifen. Dabei schwelgen die drei in Erinnerungen an die wilden 1970er Jahre, als Sophies Mutter Donna (Lily James) die Bekanntschaft dreier Männer machte und schließlich schwanger wurde. Dabei fühlt sich Sophie ihrer Mutter näher als je zuvor, denn sie bekommt selbst bald ein Baby.

 





Complete name                            : bhd-mia-1080p.mkv
Format                                   : Matroska
Format version                           : Version 2
File size                                : 11.9 GiB
Duration                                 : 1h 53mn
Overall bit rate                         : 15.0 Mbps
Encoded date                             : UTC 2018-11-15 16:25:53
Writing application                      : mkvmerge v4.5.0 ('Speed of Light') gebaut am Feb  1 2011 02:10:32
Writing library                          : libebml v1.2.0 + libmatroska v1.1.0
DURATION                                 : 01:52:33.159000000
NUMBER_OF_FRAMES                         : 1750
NUMBER_OF_BYTES                          : 5722730
_STATISTICS_WRITING_APP                  : mkvmerge v8.8.0 ('Wind at my back') 32bit
_STATISTICS_WRITING_DATE_UTC             : 2018-11-15 15:55:48
_STATISTICS_TAGS                         : BPS DURATION NUMBER_OF_FRAMES NUMBER_OF_BYTES

Video
ID                                       : 1
Format                                   : AVC
Format/Info                              : Advanced Video Codec
Format profile                           : High@L4.1
Format settings, CABAC                   : Yes
Format settings, ReFrames                : 4 frames
Codec ID                                 : V_MPEG4/ISO/AVC
Duration                                 : 1h 53mn
Bit rate                                 : 13.8 Mbps
Width                                    : 1 920 pixels
Height                                   : 800 pixels
Display aspect ratio                     : 2.40:1
Frame rate mode                          : Constant
Frame rate                               : 23.976 fps
Color space                              : YUV
Chroma subsampling                       : 4:2:0
Bit depth                                : 8 bits
Scan type                                : Progressive
Bits/(Pixel*Frame)                       : 0.375
Stream size                              : 11.0 GiB (92%)
Writing library                          : x264 core 157 r2935 545de2f
Encoding settings                        : cabac=1 / ref=5 / deblock=1:-1:-1 / analyse=0x3:0x113 / me=hex / subme=8 / psy=1 / psy_rd=1.00:0.15 / mixed_ref=1 / me_range=16 / chroma_me=1 / trellis=2 / 8x8dct=1 / cqm=0 / deadzone=21,11 / fast_pskip=1 / chroma_qp_offset=-3 / threads=25 / lookahead_threads=4 / sliced_threads=0 / nr=0 / decimate=1 / interlaced=0 / bluray_compat=0 / constrained_intra=0 / bframes=3 / b_pyramid=1 / b_adapt=2 / b_bias=0 / direct=3 / weightb=1 / open_gop=0 / weightp=2 / keyint=240 / keyint_min=23 / scenecut=40 / intra_refresh=0 / rc_lookahead=50 / rc=crf / mbtree=1 / crf=18.0 / qcomp=0.60 / qpmin=0 / qpmax=69 / qpstep=4 / ip_ratio=1.40 / aq=1:1.00
Default                                  : Yes
Forced                                   : No

Audio #1
ID                                       : 2
Format                                   : AC-3
Format/Info                              : Audio Coding 3
Mode extension                           : CM (complete main)
Format settings, Endianness              : Big
Codec ID                                 : A_AC3
Duration                                 : 1h 53mn
Bit rate mode                            : Constant
Bit rate                                 : 448 Kbps
Channel(s)                               : 6 channels
Channel positions                        : Front: L C R, Side: L R, LFE
Sampling rate                            : 48.0 KHz
Bit depth                                : 16 bits
Compression mode                         : Lossy
Stream size                              : 364 MiB (3%)
Title                                    : German
Language                                 : German
Default                                  : Yes
Forced                                   : No

Audio #2
ID                                       : 3
Format                                   : AC-3
Format/Info                              : Audio Coding 3
Mode extension                           : CM (complete main)
Format settings, Endianness              : Big
Codec ID                                 : A_AC3
Duration                                 : 1h 53mn
Bit rate mode                            : Constant
Bit rate                                 : 448 Kbps
Channel(s)                               : 6 channels
Channel positions                        : Front: L C R, Side: L R, LFE
Sampling rate                            : 48.0 KHz
Bit depth                                : 16 bits
Compression mode                         : Lossy
Stream size                              : 364 MiB (3%)
Title                                    : English
Language                                 : English
Default                                  : No
Forced                                   : No

Text #1
ID                                       : 4
Format                                   : VobSub
Muxing mode                              : zlib
Codec ID                                 : S_VOBSUB
Codec ID/Info                            : The same subtitle format used on DVDs
Title                                    : German forced
Language                                 : German
Default                                  : Yes
Forced                                   : Yes

Text #2
ID                                       : 5
Format                                   : VobSub
Muxing mode                              : zlib
Codec ID                                 : S_VOBSUB
Codec ID/Info                            : The same subtitle format used on DVDs
Title                                    : German full
Language                                 : German
Default                                  : No
Forced                                   : No

Text #3
ID                                       : 6
Format                                   : VobSub
Muxing mode                              : zlib
Codec ID                                 : S_VOBSUB
Codec ID/Info                            : The same subtitle format used on DVDs
Title                                    : English full
Language                                 : English
Default                                  : No
Forced                                   : No


Download:
Share Online Share OnlineShare OnlineShare Online
 

Kommentare