Quinn McColgan | Valeria Vereau | Clara Lago
 


 

Filecrypt zeigt vereinzelt Files als "n/a". Die Downloads sind trotzdem komplett.

DNS SERVER AENDERNum der staatlichen Zensur zu umgehen. Sollten wir von eurem Provider geseprrt werden, nutzt den TOR BROWSER oder ändert euren DNS SERVER.

Filmwünsche können bei uns im Forum abgegeben werden

Wir Speichern Nicht




 
 
 
Top Releases
Star.Wars.Episode.VIII.Die.l...
Skyscraper.2018.German.720p....
Skyscraper.2018.German.DL.10...
Zoe.2018.German.DL.1080p.Blu...
Zoe.2018.GERMAN.720p.BluRay....
Zoe.2018.MULTi.COMPLETE.BLUR...
Oceans.8.2018.DUAL.COMPLETE....
Oceans.8.2018.German.DL.1080...
Meg.German.DL.AC3.Dubbed.720...
Meg.German.DL.AC3.Dubbed.108...

Cinedubs
10×10.2018.German.AC3D.DL.1...
10×10.2018.German.AC3D.DL.7...
Sicario.2.German.DL.AC3.Dubb...
Sicario.2.German.DL.AC3.Dubb...
Hotel.Artemis.German.DL.AC3....
Hotel.Artemis.German.DL.AC3....
Mission.Impossible.Fallout.2...
Mission.Impossible.Fallout.2...
BlacKkKlansman.2018.German.A...
BlacKkKlansman.2018.German.A...

Neuerscheinungen 2017-18
Over.the.Top.1987.German.DL....
Over.the.Top.1987.German.DTS...
Over.the.Top.1987.German.DTS...
Flying.Revolution.2017.GERMA...
Dead.Men.Das.Gold.der.Apache...
Flying.Revolution.2017.GERMA...
Mission.Yeti.Die.Abenteuer.v...
Mission.Yeti.Die.Abenteuer.v...
S.W.A.T.Unter.Verdacht.2017....
Terminal.Rache.war.nie.schoe...

XXX
AuntJudys.18.10.29.Luba.Gets...
ATKGirlfriends.18.10.28.Emil...
AbbyWinters.18.10.31.Danai.A...
AdultAuditions.E260.Gina.Pre...
BarbaraBieberOfficial.18.08....
BarbaraBieberOfficial.18.08....
Analized.18.10.29.Jessica.Re...
BarbaraBieberOfficial.18.08....
ArchAngel.18.10.31.Carmen.Va...
1000Facials.18.10.29.Britt.J...
AllOver30.18.10.30.Diana.V.M...
AnalTeenAngels.18.10.30.Bell...
Anilos.18.10.30.CJ.Bridge.Li...
AllGirlMassage.18.10.29.Silv...
Babes.18.10.29.Ember.Snow.Su...
AbbyWinters.18.10.30.Olga.V....
AssTraffic.18.10.31.Vyvan.Hi...
ALSScan.18.10.31.Sabina.Roug...
ATKHairy.18.10.28.Alexandra....
BarbaraBieberOfficial.18.08....

3D
Die.Unglaublichen.2.3D.2018....
Die.Unglaublichen.2.2018.3D....
Die.Unglaublichen.2.2018.3D....
Sharknado.6.The.Last.One.3D....
Deep.Kleine.Helden.der.Tiefs...
Deep.3D.2017.MULTI.COMPLETE....
Detective.Dee.und.die.Legend...
Detective.Dee.und.die.Legend...
Skyscraper.3D.German.DL.AC3....
Ant-Man.and.the.Wasp.2018.3D...
Jurassic.World.Das.gefallene...
Jurassic.World.Das.gefallene...
Best.of.3D.vol.10.-.12.GERMA...
Die.Biene.Maja.2.Die.Honigsp...
Sharknado.6.The.Last.One.3D....

Old_Stuff
Species.IV.Das.Erwachen.2007...
Species.IV.Das.Erwachen.2007...
Hotel.Transsilvanien.2012.Ge...
The.Dead.2010.German.DL.1080...
The.Dead.2.India.2013.German...
Britney.Spears.Live.The.Femm...
Buffy.The.Vampire.Slayer.199...
IMAX.Ride.Around.The.World.2...
Schimanski.-.Duisburg.Ruhror...
Akte.X.S02.German.DTS.DL.108...
How.I.Met.Your.Mother.S02.Ge...
Akte.X.S01.German.DTS.DL.108...
Den.Himmel.gibts.echt.DL.108...
Vikings.S02.German.DL.1080p....
Be.Kind.Rewind.Abgedreht.200...

Filme
Over.the.Top.1987.German.DTS...
Joshua.Der.Erstgeborene.2007...
City.of.God.2002.German.DL.A...
Prom.Night.1980.German.AC3.D...
Eiskalte.Engel.1999.German.D...
A.Serbian.Film.UNCUT.German....
Interceptor.1986.German.DL.A...
Star.Wars.Episode.I.Die.dunk...
Der.Blaufuchs.1938.German.10...
Hot.Rod.Mit.Vollgas.durch.di...
The.Texas.Chainsaw.Massacre....
The.Terminators.2009.German....
Deutschland.83.S01.COMPLETE....
Star.Wars.Episode.V.Das.Impe...
Jack.and.the.Giants.2013.UNC...
Herrscher.der.Insel.1970.Ger...
Matrix.Trilogie.1999-2003.Ge...
Undercover.In.Too.Deep.1999....
Moulin.Rouge.1952.German.AC3...
S.W.A.T.Unter.Verdacht.2017....
Star.Wars.Episode.V.Das.Impe...
Das.Leben.Ein.Sechserpack.19...
Constantine.City.of.Demons.2...
Gesetz.der.Rache.German.2009...

 
 
Moulin.Rouge.1952.German.AC3D.DL.1080p.BluRay.x265-FuN

Jahr: 1952
Genre: Biografie, Drama
Sprache: Deutsch AC3 | Englisch AC3
Laufzeit: 1h 59mn
Bitrate: 3 011 Kbps
Format: MKV
Größe: 2.50 GiB
Release:

Beschreibung:

Ein Film über den Maler Toulouse-Lautrec und das “Moulin Rouge”, das berühmte Varieté am Montmartre in Paris, das er über alles geliebt hat. Seit er als Kind bei einem Unfall verletzt wurde, war Toulouse-Lautrec verkrüppelt und wuchs nicht mehr weiter. Mit den Frauen hatte und auch sich selbst hatte er daher sein Leben lang Probleme, die sich auch nicht besserten, als er für das “Moulin Rouge” ein Plakat malte, durch das er von einem Tag auf den nächsten ein gefeierter Künstler wurde.




Format                                   : Matroska
Format version                           : Version 4 / Version 2
File size                                : 2.50 GiB
Duration                                 : 1h 59mn
Overall bit rate                         : 3 011 Kbps
Encoded date                             : UTC 2018-11-02 13:19:30
Writing application                      : HandBrake 20180926214903-4981e11-master 2018092701
Writing library                          : Lavf58.12.100

Video
ID                                       : 1
Format                                   : HEVC
Format/Info                              : High Efficiency Video Coding
Format profile                           : Main@L4.0
Codec ID                                 : V_MPEGH/ISO/HEVC
Duration                                 : 1h 59mn
Bit rate                                 : 2 183 Kbps
Width                                    : 1 434 pixels
Height                                   : 1 080 pixels
Display aspect ratio                     : 4:3
Frame rate mode                          : Constant
Frame rate                               : 23.976 fps
Color space                              : YUV
Chroma subsampling                       : 4:2:0
Bit depth                                : 8 bits
Bits/(Pixel*Frame)                       : 0.059
Stream size                              : 1.82 GiB (73%)
Writing library                          : x265 2.8:[Windows][GCC 7.1.0][64 bit] 8bit+10bit+12bit
Encoding settings                        : cpuid=1111039 / frame-threads=3 / numa-pools=8 / wpp / no-pmode / no-pme / no-psnr / no-ssim / log-level=2 / input-csp=1 / input-res=1434x1080 / interlace=0 / total-frames=0 / level-idc=0 / high-tier=1 / uhd-bd=0 / ref=3 / no-allow-non-conformance / no-repeat-headers / annexb / no-aud / no-hrd / info / hash=0 / no-temporal-layers / open-gop / min-keyint=24 / keyint=240 / gop-lookahead=0 / bframes=4 / b-adapt=2 / b-pyramid / bframe-bias=0 / rc-lookahead=20 / lookahead-slices=6 / scenecut=40 / radl=0 / no-intra-refresh / ctu=64 / min-cu-size=8 / no-rect / no-amp / max-tu-size=32 / tu-inter-depth=1 / tu-intra-depth=1 / limit-tu=0 / rdoq-level=0 / dynamic-rd=0.00 / no-ssim-rd / signhide / no-tskip / nr-intra=0 / nr-inter=0 / no-constrained-intra / no-strong-intra-smoothing / max-merge=2 / limit-refs=3 / no-limit-modes / me=1 / subme=2 / merange=57 / temporal-mvp / weightp / no-weightb / no-analyze-src-pics / deblock=0:0 / no-sao / no-sao-non-deblock / rd=3 / no-early-skip / rskip / no-fast-intra / no-tskip-fast / no-cu-lossless / no-b-intra / no-splitrd-skip / rdpenalty=0 / psy-rd=2.00 / psy-rdoq=0.00 / no-rd-refine / no-lossless / cbqpoffs=0 / crqpoffs=0 / rc=crf / crf=23.0 / qcomp=0.60 / qpstep=4 / stats-write=0 / stats-read=0 / ipratio=1.40 / pbratio=1.30 / aq-mode=1 / aq-strength=1.00 / cutree / zone-count=0 / no-strict-cbr / qg-size=32 / no-rc-grain / qpmax=69 / qpmin=0 / no-const-vbv / sar=1 / overscan=0 / videoformat=5 / range=0 / colorprim=1 / transfer=1 / colormatrix=1 / chromaloc=0 / display-window=0 / max-cll=0,0 / min-luma=0 / max-luma=255 / log2-max-poc-lsb=8 / vui-timing-info / vui-hrd-info / slices=1 / no-opt-qp-pps / no-opt-ref-list-length-pps / no-multi-pass-opt-rps / scenecut-bias=0.05 / no-opt-cu-delta-qp / no-aq-motion / no-hdr / no-hdr-opt / no-dhdr10-opt / no-idr-recovery-sei / analysis-reuse-level=5 / scale-factor=0 / refine-intra=0 / refine-inter=0 / refine-mv=0 / no-limit-sao / ctu-info=0 / no-lowpass-dct / refine-mv-type=0 / copy-pic=1 / max-ausize-factor=1.0 / no-dynamic-refine / no-single-sei
Default                                  : Yes
Forced                                   : No
DURATION                                 : 01:58:54.925000000

Audio #1
ID                                       : 2
Format                                   : AC-3
Format/Info                              : Audio Coding 3
Mode extension                           : CM (complete main)
Format settings, Endianness              : Big
Codec ID                                 : A_AC3
Duration                                 : 1h 59mn
Bit rate mode                            : Constant
Bit rate                                 : 384 Kbps
Channel(s)                               : 2 channels
Channel positions                        : Front: L R
Sampling rate                            : 48.0 KHz
Bit depth                                : 16 bits
Compression mode                         : Lossy
Delay relative to video                  : -5ms
Stream size                              : 327 MiB (13%)
Title                                    : Stereo
Language                                 : German
Default                                  : Yes
Forced                                   : No
DURATION                                 : 01:58:54.912000000

Audio #2
ID                                       : 3
Format                                   : AC-3
Format/Info                              : Audio Coding 3
Mode extension                           : CM (complete main)
Format settings, Endianness              : Big
Codec ID                                 : A_AC3
Duration                                 : 1h 59mn
Bit rate mode                            : Constant
Bit rate                                 : 384 Kbps
Channel(s)                               : 2 channels
Channel positions                        : Front: L R
Sampling rate                            : 48.0 KHz
Bit depth                                : 16 bits
Compression mode                         : Lossy
Delay relative to video                  : -5ms
Stream size                              : 327 MiB (13%)
Title                                    : Stereo
Language                                 : English
Default                                  : No
Forced                                   : No
DURATION                                 : 01:59:05.120000000

Text
ID                                       : 4
Format                                   : ASS
Codec ID                                 : S_TEXT/ASS
Codec ID/Info                            : Advanced Sub Station Alpha
Compression mode                         : Lossless
Language                                 : German
Default                                  : Yes
Forced                                   : Yes
DURATION                                 : 01:32:42.452000000



Download:
Share Online Share OnlineShare OnlineShare Online
 

Kommentare