American Assassin BluRay-Screeener | Kosmiczne Perspektywy / Cos... | Halo legends Episode 3 English Dubbed
 


 

Filecrypt zeigt vereinzelt Files als "n/a". Die Downloads sind trotzdem komplett.

DNS SERVER AENDERNum der staatlichen Zensur zu umgehen. Sollten wir von eurem Provider geseprrt werden, nutzt den TOR BROWSER oder ändert euren DNS SERVER.

Filmwünsche können bei uns im Forum abgegeben werden

Wir Speichern Nicht




 
 
 
Top Releases
Star.Wars.Episode.VIII.Die.l...
Skyscraper.2018.German.720p....
Skyscraper.2018.German.DL.10...
Zoe.2018.German.DL.1080p.Blu...
Zoe.2018.GERMAN.720p.BluRay....
Zoe.2018.MULTi.COMPLETE.BLUR...
Oceans.8.2018.DUAL.COMPLETE....
Oceans.8.2018.German.DL.1080...
Meg.German.DL.AC3.Dubbed.720...
Meg.German.DL.AC3.Dubbed.108...

Cinedubs
Sicario.2.German.DL.AC3.Dubb...
Sicario.2.German.DL.AC3.Dubb...
Hotel.Artemis.German.DL.AC3....
Hotel.Artemis.German.DL.AC3....
Mission.Impossible.Fallout.2...
Mission.Impossible.Fallout.2...
BlacKkKlansman.2018.German.A...
BlacKkKlansman.2018.German.A...
Mandy.2018.German.AC3MD.DL.7...
Mandy.2018.German.AC3MD.DL.1...

Neuerscheinungen 2017-18
Mission.Yeti.Die.Abenteuer.v...
Mission.Yeti.Die.Abenteuer.v...
S.W.A.T.Unter.Verdacht.2017....
Terminal.Rache.war.nie.schoe...
Terminal.Rache.war.nie.schoe...
In.Darkness.2018.German.AC3D...
In.Darkness.2018.German.AC3D...
Papst.Franziskus.Ein.Mann.se...
Das.Leben.Ein.Sechserpack.19...
Skyscraper.2018.MULTi.COMPLE...

XXX
AuntJudys.18.10.29.Luba.Gets...
ATKGirlfriends.18.10.28.Emil...
AbbyWinters.18.10.31.Danai.A...
AdultAuditions.E260.Gina.Pre...
BarbaraBieberOfficial.18.08....
BarbaraBieberOfficial.18.08....
Analized.18.10.29.Jessica.Re...
BarbaraBieberOfficial.18.08....
ArchAngel.18.10.31.Carmen.Va...
1000Facials.18.10.29.Britt.J...
AllOver30.18.10.30.Diana.V.M...
AnalTeenAngels.18.10.30.Bell...
Anilos.18.10.30.CJ.Bridge.Li...
AllGirlMassage.18.10.29.Silv...
Babes.18.10.29.Ember.Snow.Su...
AbbyWinters.18.10.30.Olga.V....
AssTraffic.18.10.31.Vyvan.Hi...
ALSScan.18.10.31.Sabina.Roug...
ATKHairy.18.10.28.Alexandra....
BarbaraBieberOfficial.18.08....

3D
Die.Unglaublichen.2.3D.2018....
Die.Unglaublichen.2.2018.3D....
Die.Unglaublichen.2.2018.3D....
Sharknado.6.The.Last.One.3D....
Deep.Kleine.Helden.der.Tiefs...
Deep.3D.2017.MULTI.COMPLETE....
Detective.Dee.und.die.Legend...
Detective.Dee.und.die.Legend...
Skyscraper.3D.German.DL.AC3....
Ant-Man.and.the.Wasp.2018.3D...
Jurassic.World.Das.gefallene...
Jurassic.World.Das.gefallene...
Best.of.3D.vol.10.-.12.GERMA...
Die.Biene.Maja.2.Die.Honigsp...
Sharknado.6.The.Last.One.3D....

Old_Stuff
Species.IV.Das.Erwachen.2007...
Species.IV.Das.Erwachen.2007...
Hotel.Transsilvanien.2012.Ge...
The.Dead.2010.German.DL.1080...
The.Dead.2.India.2013.German...
Britney.Spears.Live.The.Femm...
Buffy.The.Vampire.Slayer.199...
IMAX.Ride.Around.The.World.2...
Schimanski.-.Duisburg.Ruhror...
Akte.X.S02.German.DTS.DL.108...
How.I.Met.Your.Mother.S02.Ge...
Akte.X.S01.German.DTS.DL.108...
Den.Himmel.gibts.echt.DL.108...
Vikings.S02.German.DL.1080p....
Be.Kind.Rewind.Abgedreht.200...

Filme
S.W.A.T.Unter.Verdacht.2017....
Star.Wars.Episode.V.Das.Impe...
Das.Leben.Ein.Sechserpack.19...
Constantine.City.of.Demons.2...
Gesetz.der.Rache.German.2009...
Gesetz.der.Rache.German.2009...
The.Good.Doctor.S02.German.D...
The.Good.Doctor.S02.German.D...
Die.Simpsons.S29.GERMAN.DUBB...
Riverdale.US.S03.GERMAN.DL.1...
Riverdale.US.S03.GERMAN.DL.7...
The.Walking.Dead.S08.German....
The.Walking.Dead.S08.German....
Young.Sheldon.S01.GERMAN.DUB...
Young.Sheldon.S01.GERMAN.DUB...
The.Last.Ship.S05.GERMAN.DUB...
The.Last.Ship.S05.GERMAN.DUB...
Hobo.with.a.Shotgun.2011.Ger...
Heiter.bis.wolkig.German.108...
The.Square.Ein.toedlicher.Pl...
The.Stendhal.Syndrome.German...
The.Straight.Story.1999.Germ...
The.Strangers.German.DL.1080...
Spieltrieb.2013.German.1080p...

 
 
Hotel.Artemis.German.DL.AC3.Dubbed.720p.BluRay.x264-PsO

Jahr: 2018
Genre: Action, Thriller
Sprache: Deutsch AC3 | Englisch DTS
Laufzeit: 1h 34mn
Bitrate: 7 034 Kbps
Format: MKV
Größe: 4.62 GiB
Release:

Beschreibung:

Im Los Angeles des Jahres 2028 versinken die Straßen der Stadt im Chaos eines außer Kontrolle geratenen Bürgeraufstands: Für Waikiki (Sterling K. Brown) und seine Kumpanen die perfekte Gelegenheit eine Bank zu überfallen. Als ihr Raubzug vom Kugelhagel der Polizei unterbrochen wird, bleibt der schwerverletzten Gang nur ein Ort, an den sie sich retten kann: Hotel Artemis – ein längst zum Mythos erklärtes, geheimes Krankenhaus für Schwerverbrecher. Unter der Obhut der Schwester (Jodie Foster) und ihrem Assistenten (Dave Bautista) glaubt sich Waikiki zunächst sicher. Doch der wahre Ärger beginnt, als plötzlich weitere Outlaws im Hotel einchecken!



Complete name                            : pso-artemis_bd.720p.mkv
Format                                   : Matroska
Format version                           : Version 4 / Version 2
File size                                : 4.62 GiB
Duration                                 : 1h 34mn
Overall bit rate                         : 7 034 Kbps
Encoded date                             : UTC 2018-11-08 01:43:19
Writing application                      : mkvmerge v8.0.0 ('Til The Day That I Die') 64bit
Writing library                          : libebml v1.3.1 + libmatroska v1.4.2
DURATION                                 : 01:34:07.616000000
NUMBER_OF_FRAMES                         : 176488
NUMBER_OF_BYTES                          : 271085568
_STATISTICS_WRITING_APP                  : mkvmerge v8.0.0 ('Til The Day That I Die') 64bit
_STATISTICS_WRITING_DATE_UTC             : 2018-11-08 01:43:19
_STATISTICS_TAGS                         : BPS DURATION NUMBER_OF_FRAMES NUMBER_OF_BYTES

Video
ID                                       : 1
Format                                   : AVC
Format/Info                              : Advanced Video Codec
Format profile                           : High@L4.1
Format settings, CABAC                   : Yes
Format settings, ReFrames                : 5 frames
Codec ID                                 : V_MPEG4/ISO/AVC
Duration                                 : 1h 34mn
Bit rate                                 : 5 159 Kbps
Width                                    : 1 280 pixels
Height                                   : 536 pixels
Display aspect ratio                     : 2.40:1
Frame rate mode                          : Constant
Frame rate                               : 23.976 fps
Color space                              : YUV
Chroma subsampling                       : 4:2:0
Bit depth                                : 8 bits
Scan type                                : Progressive
Bits/(Pixel*Frame)                       : 0.314
Stream size                              : 3.29 GiB (71%)
Writing library                          : x264 core 155 r2901 7d0ff22
Encoding settings                        : cabac=1 / ref=5 / deblock=1:0:0 / analyse=0x3:0x113 / me=umh / subme=8 / psy=1 / psy_rd=1.00:0.00 / mixed_ref=1 / me_range=16 / chroma_me=1 / trellis=1 / 8x8dct=1 / cqm=0 / deadzone=21,11 / fast_pskip=1 / chroma_qp_offset=-2 / threads=24 / lookahead_threads=4 / sliced_threads=0 / nr=0 / decimate=1 / interlaced=0 / bluray_compat=0 / constrained_intra=0 / bframes=3 / b_pyramid=2 / b_adapt=1 / b_bias=0 / direct=3 / weightb=1 / open_gop=0 / weightp=2 / keyint=240 / keyint_min=24 / scenecut=40 / intra_refresh=0 / rc_lookahead=50 / rc=2pass / mbtree=1 / bitrate=5159 / ratetol=1.0 / qcomp=0.60 / qpmin=0 / qpmax=69 / qpstep=4 / cplxblur=20.0 / qblur=0.5 / ip_ratio=1.40 / aq=1:1.00
Language                                 : English
Default                                  : Yes
Forced                                   : No
DURATION                                 : 01:33:45.662000000
NUMBER_OF_FRAMES                         : 134881
NUMBER_OF_BYTES                          : 3631469541
_STATISTICS_WRITING_APP                  : mkvmerge v8.0.0 ('Til The Day That I Die') 64bit
_STATISTICS_WRITING_DATE_UTC             : 2018-11-08 01:43:19
_STATISTICS_TAGS                         : BPS DURATION NUMBER_OF_FRAMES NUMBER_OF_BYTES

Audio #1
ID                                       : 2
Format                                   : AC-3
Format/Info                              : Audio Coding 3
Mode extension                           : CM (complete main)
Format settings, Endianness              : Big
Codec ID                                 : A_AC3
Duration                                 : 1h 34mn
Bit rate mode                            : Constant
Bit rate                                 : 384 Kbps
Channel(s)                               : 6 channels
Channel positions                        : Front: L C R, Side: L R, LFE
Sampling rate                            : 48.0 KHz
Bit depth                                : 16 bits
Compression mode                         : Lossy
Stream size                              : 259 MiB (5%)
Language                                 : German
Default                                  : Yes
Forced                                   : Yes

Audio #2
ID                                       : 3
Format                                   : DTS
Format/Info                              : Digital Theater Systems
Mode                                     : 16
Format settings, Endianness              : Big
Codec ID                                 : A_DTS
Duration                                 : 1h 34mn
Bit rate mode                            : Constant
Bit rate                                 : 1 509 Kbps
Channel(s)                               : 6 channels
Channel positions                        : Front: L C R, Side: L R, LFE
Sampling rate                            : 48.0 KHz
Bit depth                                : 24 bits
Compression mode                         : Lossy
Stream size                              : 1 016 MiB (21%)
Language                                 : English
Default                                  : No
Forced                                   : No

Text #1
ID                                       : 4
Format                                   : UTF-8
Codec ID                                 : S_TEXT/UTF8
Codec ID/Info                            : UTF-8 Plain Text
Language                                 : German
Default                                  : Yes
Forced                                   : Yes

Text #2
ID                                       : 5
Format                                   : UTF-8
Codec ID                                 : S_TEXT/UTF8
Codec ID/Info                            : UTF-8 Plain Text
Title                                    : English regular
Language                                 : English
Default                                  : No
Forced                                   : No


Download:
Share Online Share OnlineShare OnlineShare Online
 

Kommentare