Filecrypt zeigt vereinzelt Files als "n/a". Die Downloads sind trotzdem komplett.

DNS SERVER AENDERNum der staatlichen Zensur zu umgehen. Sollten wir von eurem Provider geseprrt werden, nutzt den TOR BROWSER oder ändert euren DNS SERVER.

Filmwünsche können bei uns im Forum abgegeben werden

Wir Speichern Nicht




 
 
 
Top Releases
Oceans.8.2018.DUAL.COMPLETE....
Oceans.8.2018.German.DL.1080...
Meg.German.DL.AC3.Dubbed.720...
Meg.German.DL.AC3.Dubbed.108...
Film.Stars.Dont.Die.in.Liver...
Film.Stars.Dont.Die.in.Liver...
In.den.Gaengen.2018.German.1...
Die.Unglaublichen.2.German.D...
Prinz.Charming.2018.German.A...
Die.Unglaublichen.2.German.D...

Cinedubs
Mission.Impossible.Fallout.2...
Mission.Impossible.Fallout.2...
BlacKkKlansman.2018.German.A...
BlacKkKlansman.2018.German.A...
Mandy.2018.German.AC3MD.DL.7...
Mandy.2018.German.AC3MD.DL.1...
The.Guilty.2018.German.AC3MD...
The.Guilty.2018.German.AC3MD...
Der.Affront.2017.GERMAN.AC3....
Der.Affront.2017.GERMAN.AC3....

Neuerscheinungen 2017-18
Mercy.Christmas.2017.COMPLET...
Papst.Franziskus.Pope.Franci...
Herrliche.Zeiten.2018.GERMAN...
Oceans.8.German.DL.1080p.Blu...
Oceans.8.German.DL.720p.BluR...
Papst.Franziskus.Ein.Mann.se...
Herrliche.Zeiten.German.720p...
Herrliche.Zeiten.German.1080...
Zeugin.der.Anklage.Witness.f...
Verborgenes.Indien.Land.des....

XXX
SweetheartVideo.18.10.16.Car...
WeLiveTogether.18.10.14.Vero...
WhiteGhetto.18.10.16.Victori...
SweetSinner.The.Babysitter.1...
ThirdMovies.Cum.Swapping.Ste...
Teenikini.E62.Kendra.Spade.A...
TabooPOV.18.10.12.Sara.St.Cl...
WildOnCam.18.10.15.Addison.L...
TeensDoPorn.18.10.15.Madison...
TheLifeErotic.18.10.16.Sofia...
Swallowed.18.10.13.Valentina...
Spizoo.18.10.17.Karma.RX.And...
WoodmanCastingX.18.06.24.Lil...
Swallowed.18.10.18.Khloe.Kap...
Submissived.18.10.15.Rharri....
TabooPOV.18.10.09.Alex.More....
TeensLoveToSwallow.Shae.XXX....
Yanks.18.10.13.Katrina.P.Fin...
WetAndPuffy.18.10.17.Antonia...
Yanks.18.10.15.Shay.Big.Cum....

3D
Die.Unglaublichen.2.3D.2018....
Die.Unglaublichen.2.2018.3D....
Die.Unglaublichen.2.2018.3D....
Sharknado.6.The.Last.One.3D....
Deep.Kleine.Helden.der.Tiefs...
Deep.3D.2017.MULTI.COMPLETE....
Detective.Dee.und.die.Legend...
Detective.Dee.und.die.Legend...
Skyscraper.3D.German.DL.AC3....
Ant-Man.and.the.Wasp.2018.3D...
Jurassic.World.Das.gefallene...
Jurassic.World.Das.gefallene...
Best.of.3D.vol.10.-.12.GERMA...
Die.Biene.Maja.2.Die.Honigsp...
Sharknado.6.The.Last.One.3D....

Old_Stuff
Species.IV.Das.Erwachen.2007...
Species.IV.Das.Erwachen.2007...
Hotel.Transsilvanien.2012.Ge...
The.Dead.2010.German.DL.1080...
The.Dead.2.India.2013.German...
Britney.Spears.Live.The.Femm...
Buffy.The.Vampire.Slayer.199...
IMAX.Ride.Around.The.World.2...
Schimanski.-.Duisburg.Ruhror...
Akte.X.S02.German.DTS.DL.108...
How.I.Met.Your.Mother.S02.Ge...
Akte.X.S01.German.DTS.DL.108...
Den.Himmel.gibts.echt.DL.108...
Vikings.S02.German.DL.1080p....
Be.Kind.Rewind.Abgedreht.200...

Filme
Dragon.Tiger.Gate.2006.Germa...
Der.Geschmack.von.Apfelkerne...
The.Streets.Of.London.2008.G...
The.Sunset.Limited.2011.GERM...
Code.Name.The.Cleaner.German...
Caged.2010.German.1080p.BluR...
Jagd.auf.einen.Unsichtbaren....
Extrem.mit.allen.Mitteln.199...
Aus.dem.Dschungel.in.den.Dsc...
Oceans.8.2018.German.Dubbed....
Oceans.8.2018.German.Dubbed....
The.Sound.of.War.Wenn.Helden...
The.Special.Relationship.201...
Dredd.2012.German.DL.1080p.B...
Harold.und.Kumar.Alle.Jahre....
The.Splatter.Show.2009.Germa...
The.Son.of.No.One.2010.Germa...
The.Sleeper.UNRATED.GERMAN.2...
The.Skeptic.Das.teuflische.H...
The.Supercapitalist.2012.Ger...
Splice.Das.Genexperiment.Ger...
The.Suspect.Traue.keinem.201...
The.Sword.and.the.Sorcerer.2...
Body.Heat.1981.MULTi.COMPLET...

 
 
Der.Geschmack.von.Apfelkernen.German.1080p.BluRay.x264-ROOR

Jahr: 2013
Genre: Drama
Sprache: Deutsch DTS
Laufzeit: 2h 0mn
Bitrate: 6 875 Kbps
Format: MKV
Größe: 5.78 GiB
Release:

Beschreibung:

Die 28-jährige Iris weiß nicht, ob sie das Erbe ihrer Großmutter, das Haus der Familie, annehmen soll. Um sich Klarheit zu verschaffen, bleibt sie zunächst eine Woche, streift durch die mit Erinnerungen vollgestopften Zimmer und den verwunschenen Garten, wird mit der manchmal schmerzvollen Vergangenheit und verdrängten Traumata konfrontiert, durchlebt Stationen ihrer Kindheit und trifft einen alten Freund wieder. Am Ende ist sie bereit für einen Neuanfang.



Complete name                            : roor-apfelkernen-1080p.mkv
Format                                   : Matroska
Format version                           : Version 4 / Version 2
File size                                : 5.78 GiB
Duration                                 : 2h 0mn
Overall bit rate                         : 6 875 Kbps
Encoded date                             : UTC 2014-03-31 08:47:15
Writing application                      : mkvmerge v6.7.0 ('Back to the Ground') 64bit built on Jan  8 2014 15:10:52
Writing library                          : libebml v1.3.0 + libmatroska v1.4.1

Video
ID                                       : 1
Format                                   : AVC
Format/Info                              : Advanced Video Codec
Format profile                           : High@L4.1
Format settings, CABAC                   : Yes
Format settings, ReFrames                : 5 frames
Codec ID                                 : V_MPEG4/ISO/AVC
Duration                                 : 2h 0mn
Bit rate                                 : 5 229 Kbps
Width                                    : 1 920 pixels
Height                                   : 816 pixels
Display aspect ratio                     : 2.35:1
Frame rate mode                          : Constant
Frame rate                               : 24.000 fps
Color space                              : YUV
Chroma subsampling                       : 4:2:0
Bit depth                                : 8 bits
Scan type                                : Progressive
Bits/(Pixel*Frame)                       : 0.139
Stream size                              : 4.40 GiB (76%)
Writing library                          : x264 core 142 r2409 d6b4e63
Encoding settings                        : cabac=1 / ref=5 / deblock=1:-2:-2 / analyse=0x3:0x113 / me=umh / subme=7 / psy=1 / psy_rd=0.80:0.00 / mixed_ref=1 / me_range=16 / chroma_me=1 / trellis=1 / 8x8dct=1 / cqm=0 / deadzone=21,11 / fast_pskip=0 / chroma_qp_offset=-2 / threads=6 / lookahead_threads=1 / sliced_threads=0 / nr=0 / decimate=1 / interlaced=0 / bluray_compat=0 / constrained_intra=0 / bframes=3 / b_pyramid=2 / b_adapt=1 / b_bias=0 / direct=1 / weightb=1 / open_gop=0 / weightp=2 / keyint=250 / keyint_min=24 / scenecut=40 / intra_refresh=0 / rc_lookahead=40 / rc=crf / mbtree=1 / crf=20.0 / qcomp=0.60 / qpmin=0 / qpmax=69 / qpstep=4 / ip_ratio=1.40 / aq=1:1.00
Default                                  : Yes
Forced                                   : No

Audio
ID                                       : 2
Format                                   : DTS
Format/Info                              : Digital Theater Systems
Mode                                     : 16
Format settings, Endianness              : Big
Codec ID                                 : A_DTS
Duration                                 : 2h 0mn
Bit rate mode                            : Constant
Bit rate                                 : 1 509 Kbps
Channel(s)                               : 6 channels
Channel positions                        : Front: L C R, Side: L R, LFE
Sampling rate                            : 48.0 KHz
Bit depth                                : 24 bits
Compression mode                         : Lossy
Stream size                              : 1.27 GiB (22%)
Language                                 : German
Default                                  : Yes
Forced                                   : No


Download:
Share Online Share OnlineShare OnlineShare Online
 

Kommentare