Filecrypt zeigt vereinzelt Files als "n/a". Die Downloads sind trotzdem komplett.

DNS SERVER AENDERNum der staatlichen Zensur zu umgehen. Sollten wir von eurem Provider geseprrt werden, nutzt den TOR BROWSER oder ändert euren DNS SERVER.

Filmwünsche können bei uns im Forum abgegeben werden

Wir Speichern Nicht




 
 
 
Top Releases
Film.Stars.Dont.Die.in.Liver...
Film.Stars.Dont.Die.in.Liver...
In.den.Gaengen.2018.German.1...
Die.Unglaublichen.2.German.D...
Prinz.Charming.2018.German.A...
Die.Unglaublichen.2.German.D...
Die.Unglaublichen.2.German.D...
Unknown.Soldier.Kampf.ums.Va...
Gangstas.4.Life.2018.German....
LenaLove.2016.German.AC3.108...

Cinedubs
BlacKkKlansman.2018.German.A...
BlacKkKlansman.2018.German.A...
Mandy.2018.German.AC3MD.DL.7...
Mandy.2018.German.AC3MD.DL.1...
The.Guilty.2018.German.AC3MD...
The.Guilty.2018.German.AC3MD...
Der.Affront.2017.GERMAN.AC3....
Der.Affront.2017.GERMAN.AC3....
Meg.German.DL.AC3.Dubbed.108...
Meg.German.DL.AC3.Dubbed.720...

Neuerscheinungen 2017-18
Padre.2018.German.AC3D.5.1.D...
Padre.2018.German.AC3D.5.1.D...
Mercy.Christmas.Bitte.zu.Tis...
Mercy.Christmas.Bitte.zu.Tis...
Superman.Der.Film.Superman.T...
Overboard.2018.German.AC3.DL...
Descendants.2.Die.Nachkommen...
Das.Boot.-.Directors.Cut.198...
The.Texas.Chainsaw.Massacre....
Mein.Name.ist.Somebody.Zwei....

XXX
PornMegaLoad.18.10.16.Maria....
PornFidelity.E764.Maya.Kendr...
PervMom.18.10.16.Britney.Amb...
PlayboyPlus.18.10.19.Milunie...
PornMegaLoad.18.10.17.Emily....
PornMegaLoad.18.10.16.Gya.Ro...
PervMom.18.10.09.Janna.Hicks...
PornMegaLoad.18.10.14.Mariss...
PornStreamLive.18.03.07.Cind...
PornMegaLoad.18.10.12.Sylvia...
PlayboyPlus.18.10.15.Thera.J...
PervMom.18.10.13.Janna.Hicks...
PornStreamLive.18.03.07.Aure...
PixAndVideo.18.10.15.Anainda...
PlumperPass.18.10.17.Lisa.Le...
PlayboyPlus.18.10.17.Vi.Shy....
PlayboyPlus.18.10.16.Anna.Ka...
PervsOnPatrol.18.10.15.Gineb...
PornMegaLoad.18.10.16.Klaudi...
PetiteHDPorn.18.10.15.Arian....

3D
Die.Unglaublichen.2.2018.3D....
Die.Unglaublichen.2.2018.3D....
Sharknado.6.The.Last.One.3D....
Deep.Kleine.Helden.der.Tiefs...
Deep.3D.2017.MULTI.COMPLETE....
Detective.Dee.und.die.Legend...
Detective.Dee.und.die.Legend...
Skyscraper.3D.German.DL.AC3....
Ant-Man.and.the.Wasp.2018.3D...
Jurassic.World.Das.gefallene...
Jurassic.World.Das.gefallene...
Best.of.3D.vol.10.-.12.GERMA...
Die.Biene.Maja.2.Die.Honigsp...
Sharknado.6.The.Last.One.3D....
Solo.A.Star.Wars.Story.3D.20...

Old_Stuff
Species.IV.Das.Erwachen.2007...
Species.IV.Das.Erwachen.2007...
Hotel.Transsilvanien.2012.Ge...
The.Dead.2010.German.DL.1080...
The.Dead.2.India.2013.German...
Britney.Spears.Live.The.Femm...
Buffy.The.Vampire.Slayer.199...
IMAX.Ride.Around.The.World.2...
Schimanski.-.Duisburg.Ruhror...
Akte.X.S02.German.DTS.DL.108...
How.I.Met.Your.Mother.S02.Ge...
Akte.X.S01.German.DTS.DL.108...
Den.Himmel.gibts.echt.DL.108...
Vikings.S02.German.DL.1080p....
Be.Kind.Rewind.Abgedreht.200...

Filme
Bordello.of.Blood.Death.Tale...
The.Windmill.Massacre.2016.G...
Stalker.2K.Remastered.1979.G...
Stalker.1979.2K.Remastered.G...
Superman.der.Film.1978.Germa...
Die.Braut.des.Prinzen.1987.R...
Jim.Knopf.und.Lukas.der.Loko...
Matrix.USA.1999.US.UHD2BD.Ke...
Braveheart.1995.German.DL.21...
The.Sacrament.2013.German.DL...
Es.begann.in.Neapel.1960.Ger...
Erotische.Geschichten.aus.10...
Erotische.Erpressung.2010.Ge...
Drei.Caballeros.1944.German....
The.Fog.Nebel.des.Grauens.19...
The.Runaways.2010.German.DL....
The.Running.Dead.2012.German...
Valkenvania.1991.German.AC3D...
Elementarteilchen.2006.Germa...
Final.Destination.2000.Germa...
Top.Secret.1984.German.AC3D....
The.Rock.Entscheidung.auf.Al...
The.River.Why.2010.German.AC...
The.Rocker.2008.German.AC3D....

 
 
Film.Stars.Dont.Die.in.Liverpool.2017.German.AC3D.5.1.DL.1080p.BluRay.x264-BluRHD

Jahr: 2017
Genre: Biografie, Drama
Sprache: Deutsch AC3 | Englisch DTS
Laufzeit: 1h 46mn
Bitrate: 10.7 Mbps
Format: MKV
Größe: 7.93 GiB
Release:

Beschreibung:

Liverpool, 1978: Der junge britische Schauspieler Peter Turner (Jamie Bell) verliebt sich in die deutlich ältere Leinwanddiva und Oscarpreisträgerin Gloria Grahame (Annette Bening). Was als leidenschaftliche, von der Umgebung nicht ganz ernstgenommene Affäre beginnt, entwickelt sich nach und nach zu einer ernsthaften Beziehung, in der Peter nicht nur Glorias Partner ist, sondern auch zu ihrem engsten Vertrauten wird. Ihre Liebe wird jedoch auf eine besonders harte Probe gestellt, als Gloria erkrankt und sich nicht in ein Krankenhaus einweisen lassen will. Peters Eltern Bella (Julie Walters) und Joe Turner (Kenneth Cranham) nehmen den Star bei sich zuhause auf und kümmern sich hingebungsvoll um die exzentrische Diva, deren Fans sie schon immer waren.



Complete name                            : bhd-fsdlil-1080p.mkv
Format                                   : Matroska
Format version                           : Version 2
File size                                : 7.93 GiB
Duration                                 : 1h 46mn
Overall bit rate                         : 10.7 Mbps
Encoded date                             : UTC 2018-11-03 16:36:41
Writing application                      : mkvmerge v4.5.0 ('Speed of Light') gebaut am Feb  1 2011 02:10:32
Writing library                          : libebml v1.2.0 + libmatroska v1.1.0

Video
ID                                       : 1
Format                                   : AVC
Format/Info                              : Advanced Video Codec
Format profile                           : High@L4.1
Format settings, CABAC                   : Yes
Format settings, ReFrames                : 5 frames
Codec ID                                 : V_MPEG4/ISO/AVC
Duration                                 : 1h 46mn
Bit rate                                 : 9 566 Kbps
Width                                    : 1 920 pixels
Height                                   : 808 pixels
Display aspect ratio                     : 2.40:1
Frame rate mode                          : Constant
Frame rate                               : 23.976 fps
Color space                              : YUV
Chroma subsampling                       : 4:2:0
Bit depth                                : 8 bits
Scan type                                : Progressive
Bits/(Pixel*Frame)                       : 0.257
Stream size                              : 6.92 GiB (87%)
Writing library                          : x264 core 155 r2901 7d0ff22
Encoding settings                        : cabac=1 / ref=5 / deblock=1:-3:-3 / analyse=0x3:0x113 / me=umh / subme=8 / psy=1 / psy_rd=1.00:0.00 / mixed_ref=1 / me_range=32 / chroma_me=1 / trellis=2 / 8x8dct=1 / cqm=0 / deadzone=21,11 / fast_pskip=1 / chroma_qp_offset=-2 / threads=24 / lookahead_threads=4 / sliced_threads=0 / nr=0 / decimate=1 / interlaced=0 / bluray_compat=0 / constrained_intra=0 / bframes=3 / b_pyramid=2 / b_adapt=2 / b_bias=0 / direct=3 / weightb=1 / open_gop=0 / weightp=2 / keyint=240 / keyint_min=24 / scenecut=40 / intra_refresh=0 / rc_lookahead=50 / rc=2pass / mbtree=1 / bitrate=9566 / ratetol=1.0 / qcomp=0.60 / qpmin=0 / qpmax=69 / qpstep=4 / cplxblur=20.0 / qblur=0.5 / ip_ratio=1.40 / aq=3:0.80
Default                                  : Yes
Forced                                   : No

Audio #1
ID                                       : 2
Format                                   : AC-3
Format/Info                              : Audio Coding 3
Mode extension                           : CM (complete main)
Format settings, Endianness              : Big
Codec ID                                 : A_AC3
Duration                                 : 1h 46mn
Bit rate mode                            : Constant
Bit rate                                 : 384 Kbps
Channel(s)                               : 6 channels
Channel positions                        : Front: L C R, Side: L R, LFE
Sampling rate                            : 48.0 KHz
Bit depth                                : 16 bits
Compression mode                         : Lossy
Delay relative to video                  : 18s 400ms
Stream size                              : 291 MiB (4%)
Title                                    : German
Language                                 : German
Default                                  : Yes
Forced                                   : No

Audio #2
ID                                       : 3
Format                                   : DTS
Format/Info                              : Digital Theater Systems
Mode                                     : 16
Format settings, Endianness              : Big
Codec ID                                 : A_DTS
Duration                                 : 1h 46mn
Bit rate mode                            : Constant
Bit rate                                 : 768 Kbps
Channel(s)                               : 6 channels
Channel positions                        : Front: L C R, Side: L R, LFE
Sampling rate                            : 48.0 KHz
Bit depth                                : 24 bits
Compression mode                         : Lossy
Delay relative to video                  : 33ms
Stream size                              : 582 MiB (7%)
Title                                    : English
Language                                 : English
Default                                  : No
Forced                                   : No

Text #1
ID                                       : 4
Format                                   : VobSub
Muxing mode                              : zlib
Codec ID                                 : S_VOBSUB
Codec ID/Info                            : The same subtitle format used on DVDs
Title                                    : German forced
Language                                 : German
Default                                  : Yes
Forced                                   : Yes

Text #2
ID                                       : 5
Format                                   : UTF-8
Codec ID                                 : S_TEXT/UTF8
Codec ID/Info                            : UTF-8 Plain Text
Title                                    : English full
Language                                 : English
Default                                  : No
Forced                                   : No


Download:
Share Online Share OnlineShare OnlineShare Online
 

Kommentare