Hibike! Euphonium 2 | WarGames - Kriegsspiele | Видеокурсы
 


 

Filecrypt zeigt vereinzelt Files als "n/a". Die Downloads sind trotzdem komplett.

DNS SERVER AENDERNum der staatlichen Zensur zu umgehen. Sollten wir von eurem Provider geseprrt werden, nutzt den TOR BROWSER oder ändert euren DNS SERVER.

Filmwünsche können bei uns im Forum abgegeben werden

Wir Speichern Nicht




 
 
 
Top Releases
Jim.Knopf.und.Lukas.der.Loko...
Jim.Knopf.und.Lukas.der.Loko...
Die.Unglaublichen.2.German.D...
Shirkers.2018.German.DL.Doku...
Shirkers.2018.German.DL.Doku...
The.Equalizer.2.German.DL.AC...
The.Equalizer.2.German.DL.AC...
In.den.Gaengen.German.1080p....
Gun.City.2018.German.720p.WE...
Gun.City.2018.German.1080p.W...

Cinedubs
The.Guilty.2018.German.AC3MD...
The.Guilty.2018.German.AC3MD...
Der.Affront.2017.GERMAN.AC3....
Der.Affront.2017.GERMAN.AC3....
Meg.German.DL.AC3.Dubbed.108...
Meg.German.DL.AC3.Dubbed.720...
The.Equalizer.2.German.DL.AC...
The.Equalizer.2.German.DL.AC...
The.Nun.German.DL.AC3.Dubbed...
The.Nun.German.DL.AC3.Dubbed...

Neuerscheinungen 2017-18
Das.Phantom.Kommando.DC.1985...
Das.Phantom.Kommando.DC.1985...
Das.Phantom.Kommando.DC.1985...
Bo.und.der.Weihnachtsstern.2...
Bo.und.der.Weihnachtsstern.2...
The Fog 1980.MULTi.COMPLETE....
The.Matrix.Revolutions.2003....
The.Darkest.Minds.2018.COMPL...
The.Fog.Nebel.des.Grauens.19...
The.Fog.Nebel.des.Grauens.19...

XXX
MatureNL.18.10.12.Alexa.Blun...
NaughtyOffice.18.10.14.Ryan....
NetVideoGirls.18.10.09.Xandr...
MyFriendsHotMom.18.10.15.Mer...
Nerd.Pervert.Vol.28.XXX.1080...
MofosBSides.18.10.13.Haven.R...
Mommies.Got.Boobs.XXX.1080p....
MilfBody.18.10.14.Brandi.Lov...
NewSensations.18.10.13.Kenna...
MyLifeInMiami.18.10.09.Me.An...
MyFirstSexTeacher.18.10.13.R...
Mommies.Got.Boobs.XXX.720p.W...
MomXXX.18.10.18.Aria.Rossi.A...
Lesbea.18.10.14.Sasha.Sparro...
LittleCapriceDreams.18.10.08...
MatureNL.18.04.27.Molly.Mara...
LANewGirl.18.09.16.Layla.Sho...
LoneMilf.18.10.15.Olivia.Blu...
LivingWithAPornstar.18.10.15...
Lustery.E141.Maria.And.Zee.R...

3D
Sharknado.6.The.Last.One.3D....
Deep.Kleine.Helden.der.Tiefs...
Deep.3D.2017.MULTI.COMPLETE....
Detective.Dee.und.die.Legend...
Detective.Dee.und.die.Legend...
Skyscraper.3D.German.DL.AC3....
Ant-Man.and.the.Wasp.2018.3D...
Jurassic.World.Das.gefallene...
Jurassic.World.Das.gefallene...
Best.of.3D.vol.10.-.12.GERMA...
Die.Biene.Maja.2.Die.Honigsp...
Sharknado.6.The.Last.One.3D....
Solo.A.Star.Wars.Story.3D.20...
Solo.A.Star.Wars.Story.3D.20...
Die.Biene.Maja.2.Die.Honigsp...

Old_Stuff
Species.IV.Das.Erwachen.2007...
Species.IV.Das.Erwachen.2007...
Hotel.Transsilvanien.2012.Ge...
The.Dead.2010.German.DL.1080...
The.Dead.2.India.2013.German...
Britney.Spears.Live.The.Femm...
Buffy.The.Vampire.Slayer.199...
IMAX.Ride.Around.The.World.2...
Schimanski.-.Duisburg.Ruhror...
Akte.X.S02.German.DTS.DL.108...
How.I.Met.Your.Mother.S02.Ge...
Akte.X.S01.German.DTS.DL.108...
Den.Himmel.gibts.echt.DL.108...
Vikings.S02.German.DL.1080p....
Be.Kind.Rewind.Abgedreht.200...

Filme
House.Of.Cards.2013.S06.GERM...
Krypton.S01.GERMAN.DUBBED.72...
Once.Upon.a.Time.S07.German....
Once.Upon.a.Time.S07.German....
4.Blocks.S02.GERMAN.1080p.HD...
4.Blocks.S02.GERMAN.720p.HDT...
Sie.Leben.1988.German.DL.216...
The.Fog.Nebel.des.Grauens.19...
Modern.Family.S09.GERMAN.DUB...
Modern.Family.S09.GERMAN.DUB...
The.Paperboy.2012.German.DL....
The.Patrol.2013.German.DL.10...
Die.68er.-.Wir.waren.die.Zuk...
Schuften.bis.zum.Umfallen.DH...
Der.zweite.Weltkrieg.Krieg.d...
The.Painter.Dein.Blut.ist.se...
The.Package.Killer.Games.201...
The.Pact.2.Es.ist.noch.nicht...
The.Pact.2012.German.DL.1080...
Maennertag.2016.German.AC3.1...
Jin.Roh.Die.Wolfsbrigade.199...
Die.7.Macht.The.Legend.of.Wi...
Ray.Donovan.S06.GERMAN.DUBBE...
Ray.Donovan.S06.GERMAN.DUBBE...

 
 
Sharknado.6.The.Last.One.3D.2018.German.DL.1080p.BluRay.x264-iMPERiUM

Jahr: 2018
Genre: Action, Komödie
Sprache: Deutsch DTS | Englisch DTS
Laufzeit: 1h 26mn
Bitrate: 11.7 Mbps
Format: MKV
Größe: 7.03 GiB
Release:

Beschreibung:

Um zu verhindern, dass es zum allerersten Sharknado der Menschheitsgeschichte kommt, schnappt sich Fin die Zeitmaschine seines Sohnes Gil und reist 66 Millionen Jahre in die Vergangenheit. Dort trifft er nicht nur auf die Dinosaurier, die kurz vor ihrer Auslöschung stehen, sondern auch auf alte Bekannte - allen voran seine totgeglaubte Frau April. Sie entkommen dem Tod nur um ein Haar und können zurück in die Zukunft fliehen, wo sie Halt im Mittelalter machen, George Washington treffen und an der Seite von Billy the Kid kämpfen.



Complete name                            : Sharknado.6.The.Last.One.3D.2018.German.DL.1080p.BluRay.x264-iMPERiUM.mkv
Format                                   : Matroska
Format version                           : Version 4 / Version 2
File size                                : 7.03 GiB
Duration                                 : 1h 26mn
Overall bit rate                         : 11.7 Mbps
Encoded date                             : UTC 2018-10-30 14:58:33
Writing application                      : mkvmerge v26.0.0 ('In The Game') 64-bit
Writing library                          : libebml v1.3.6 + libmatroska v1.4.9
DURATION                                 : 01:26:01.558000000
NUMBER_OF_FRAMES                         : 483896
NUMBER_OF_BYTES                          : 973598752
_STATISTICS_WRITING_APP                  : mkvmerge v26.0.0 ('In The Game') 64-bit
_STATISTICS_WRITING_DATE_UTC             : 2018-10-30 14:58:33
_STATISTICS_TAGS                         : BPS DURATION NUMBER_OF_FRAMES NUMBER_OF_BYTES

Video
ID                                       : 1
Format                                   : AVC
Format/Info                              : Advanced Video Codec
Format profile                           : High@L4.1
Format settings, CABAC                   : Yes
Format settings, ReFrames                : 4 frames
Codec ID                                 : V_MPEG4/ISO/AVC
Duration                                 : 1h 26mn
Bit rate                                 : 8 448 Kbps
Width                                    : 1 920 pixels
Height                                   : 1 080 pixels
Display aspect ratio                     : 16:9
Frame rate mode                          : Constant
Frame rate                               : 23.976 fps
Color space                              : YUV
Chroma subsampling                       : 4:2:0
Bit depth                                : 8 bits
Scan type                                : Progressive
Bits/(Pixel*Frame)                       : 0.170
Stream size                              : 5.08 GiB (72%)
Writing library                          : x264 core 157 r2935 545de2f
Encoding settings                        : cabac=1 / ref=4 / deblock=1:-3:-3 / analyse=0x3:0x133 / me=umh / subme=8 / psy=1 / psy_rd=1.00:0.15 / mixed_ref=1 / me_range=16 / chroma_me=1 / trellis=1 / 8x8dct=1 / cqm=0 / deadzone=21,11 / fast_pskip=0 / chroma_qp_offset=-3 / threads=12 / lookahead_threads=2 / sliced_threads=0 / nr=0 / decimate=1 / interlaced=0 / bluray_compat=0 / constrained_intra=0 / bframes=3 / b_pyramid=2 / b_adapt=2 / b_bias=0 / direct=3 / weightb=1 / open_gop=0 / weightp=2 / keyint=240 / keyint_min=24 / scenecut=40 / intra_refresh=0 / rc_lookahead=50 / rc=crf / mbtree=1 / crf=20.0 / qcomp=0.60 / qpmin=0 / qpmax=69 / qpstep=4 / ip_ratio=1.40 / aq=1:1.00
Language                                 : English
Default                                  : Yes
Forced                                   : No
DURATION                                 : 01:26:01.569000000
NUMBER_OF_FRAMES                         : 123754
NUMBER_OF_BYTES                          : 5598907369
_STATISTICS_WRITING_APP                  : mkvmerge v26.0.0 ('In The Game') 64-bit
_STATISTICS_WRITING_DATE_UTC             : 2018-10-30 14:58:33
_STATISTICS_TAGS                         : BPS DURATION NUMBER_OF_FRAMES NUMBER_OF_BYTES

Audio #1
ID                                       : 2
Format                                   : DTS
Format/Info                              : Digital Theater Systems
Mode                                     : 16
Format settings, Endianness              : Big
Codec ID                                 : A_DTS
Duration                                 : 1h 26mn
Bit rate mode                            : Constant
Bit rate                                 : 1 509 Kbps
Channel(s)                               : 6 channels
Channel positions                        : Front: L C R, Side: L R, LFE
Sampling rate                            : 48.0 KHz
Bit depth                                : 24 bits
Compression mode                         : Lossy
Stream size                              : 928 MiB (13%)
Language                                 : German
Default                                  : Yes
Forced                                   : No

Audio #2
ID                                       : 3
Format                                   : DTS
Format/Info                              : Digital Theater Systems
Mode                                     : 16
Format settings, Endianness              : Big
Codec ID                                 : A_DTS
Duration                                 : 1h 26mn
Bit rate mode                            : Constant
Bit rate                                 : 1 509 Kbps
Channel(s)                               : 6 channels
Channel positions                        : Front: L C R, Side: L R, LFE
Sampling rate                            : 48.0 KHz
Bit depth                                : 24 bits
Compression mode                         : Lossy
Stream size                              : 928 MiB (13%)
Language                                 : English
Default                                  : No
Forced                                   : No


Download:
Share Online Share OnlineShare OnlineShare Online
 

Kommentare