Filecrypt zeigt vereinzelt Files als "n/a". Die Downloads sind trotzdem komplett.

DNS SERVER AENDERNum der staatlichen Zensur zu umgehen. Sollten wir von eurem Provider geseprrt werden, nutzt den TOR BROWSER oder ändert euren DNS SERVER.

Filmwünsche können bei uns im Forum abgegeben werden

Wir Speichern Nicht




 
 
 
Top Releases
The.Kissing.Booth.2018.Germa...
The.Ritual.2017.German.AC3.D...
Feinde.Hostiles.2017.MULTi.C...
Wohne.lieber.ungewoehnlich.2...
Wohne.lieber.ungewoehnlich.2...
Journeyman.2017.German.DL.10...
Journeyman.2017.German.DL.10...
Journeyman.2017.German.720p....
Journeyman.2017.DUAL.COMPLET...
Dunkirk.2017.IMAX.German.DTS...

Cinedubs
Searching.2018.German.AC3MD....
Searching.2018.German.AC3MD....
211.Cops.Under.Fire.2018.Ger...
211.Cops.Under.Fire.2018.Ger...
The.Watcher.Willkommen.im.Mo...
The.Watcher.Willkommen.im.Mo...
MEG.Biss.bald.2018.German.AC...
MEG.Biss.bald.2018.German.AC...
Mamma.Mia.2.Here.We.Go.Again...
Mamma.Mia.2.Here.We.Go.Again...

Neuerscheinungen 2017-18
The.Punisher.EXTENDED.GERMAN...
The.Punisher.EXTENDED.GERMAN...
No.Way.Out.Gegen.die.Flammen...
No.Way.Out.Gegen.die.Flammen...
Muse.2017.German.DL.1080p.Bl...
Muse.2017.German.720p.BluRay...
Skyscraper.2018.3D.HSBS.Germ...
Fuenf.Freunde.und.das.Tal.de...
Death.Race.4.Beyond.Anarchy....
Death.Race.4.Beyond.Anarchy....

XXX
BangBros18.18.10.02.Gianna.D...
BoundGangBangs.18.10.03.Kaci...
CherryPimps.18.10.04.Gia.Pai...
DorcelClub.18.10.05.Henessy....
DaneJones.18.10.05.Canela.Sk...
Seduced.By.My.Secretary.XXX....
Nubiles.18.10.03.Dominica.Ou...
MyFirstSexTeacher.18.10.02.E...
Family.18.10.03.Maya.Kendric...
Joymii.18.10.05.Shona.River....
InterracialPass.18.09.28.Ari...
ATKGirlfriends.18.10.04.Lucy...
ClubSeventeen.18.10.04.Natal...
CreampieInAsia.18.09.21.Sumi...
DarkX.18.10.04.Aidra.Fox.Bos...
NFBusty.18.10.05.Kira.Queen....
WankItNow.17.11.18.Roxi.Keog...
MilfHunter.18.10.01.Alexis.F...
WankItNow.17.11.19.Honour.Ma...
CherryPimps.18.10.01.Isabell...

3D
Jurassic.World.Das.gefallene...
Jurassic.World.Das.gefallene...
Best.of.3D.vol.10.-.12.GERMA...
Die.Biene.Maja.2.Die.Honigsp...
Sharknado.6.The.Last.One.3D....
Solo.A.Star.Wars.Story.3D.20...
Solo.A.Star.Wars.Story.3D.20...
Die.Biene.Maja.2.Die.Honigsp...
Avengers.Infinity.War.3D.201...
Avengers.Infinity.War.3D.201...
Rampage.Big.Meets.Bigger.3D....
Rampage.Big.Meets.Bigger.3D....
Rampage.Big.Meets.Bigger.3D....
Winter.Games.3D.2013.DUAL.CO...
Tomb.Raider.3D.2018.German.7...

Old_Stuff
Britney.Spears.Live.The.Femm...
Buffy.The.Vampire.Slayer.199...
IMAX.Ride.Around.The.World.2...
Schimanski.-.Duisburg.Ruhror...
Akte.X.S02.German.DTS.DL.108...
How.I.Met.Your.Mother.S02.Ge...
Akte.X.S01.German.DTS.DL.108...
Den.Himmel.gibts.echt.DL.108...
Vikings.S02.German.DL.1080p....
Be.Kind.Rewind.Abgedreht.200...
Be.Kind.Rewind.Abgedreht.200...
Dracula.The.Dark.Lord.2012.G...
21.2008.German.DL.1080p.BluR...
Achtung.fertig.WK.Swissgerma...
The.Ouija.Exorcism.2015.MULT...

Filme
Cherry.2000.UNCUT.1987.Germa...
Riverdale.US.S03.GERMAN.DL.1...
Riverdale.US.S03.GERMAN.DL.7...
4.Blocks.S02.GERMAN.1080p.HD...
4.Blocks.S02.GERMAN.720p.HDT...
The.Outpost.S01.GERMAN.720p....
Snowfall.S02.German.DD51.Dub...
The.Handmaids.Tale.S02.COMPL...
The.Handmaids.Tale.S02.COMPL...
Mr.Mercedes.S02.German.DD+51...
Mr.Mercedes.S02.German.DD+51...
Legends.of.Tomorrow.S03.Germ...
iZombie.S04.German.DD51.Dubb...
iZombie.S04.German.DD51.Dubb...
Die.Simpsons.S29.GERMAN.DUBB...
Arrow.S06.GERMAN.DL.1080p.HD...
Arrow.S06.GERMAN.DL.720p.HDT...
Einbruch.und.Diebstahl.2006....
Eine.gefaehrliche.Frau.1993....
The.Fellows.Hip.Der.Herr.des...
The.Fields.2011.German.DL.10...
80000.Meilen.durch.den.Weltr...
Eat.Locals.2017.German.DL.10...
Eat.Ich.hab.mich.zum.Fressen...

 
 
Cherry.2000.UNCUT.1987.German.AC3.DL.1080p.AT.BluRay.x265-FuN

Jahr: 2000
Genre: Action, Komödie
Sprache: Deutsch AC3 | Englisch AC3
Laufzeit: 1h 38mn
Bitrate: 3 103 Kbps
Format: MKV
Größe: 2.14 GiB
Release:

Beschreibung:

Die Welt im Jahr 2017. Die endgültige Geschlechtertrennung ist vollzogen. Perfekt nachgebildete Roboterfrauen ersetzen das weltweit verdrängte Orginal. Für Sam sieht es derzeit schlecht aus: seiner hübschen Androidin Modell Cherry 2000 ist ein Chip durchgebrannt - und Ersatzteile sind nicht mehr so leicht aufzutreiben. Aber Sam gibt nicht auf. Auf seiner Odyssee durch die Wüste begegnet er der attraktiven E. Johnson, einer echten Frau. Zunächst kommt er überhaupt nicht mit dem eigensinnigen Wesen klar, aber dann... Doch für schöne Stunden bleibt den beiden keine Zeit. Sie werden von einer Bande skrupelloser Desperados angegriffen. Anführer Lester eröffnet eine sadistische Treibjagd...



Complete name                            : Cherry.x265.mkv
Format                                   : Matroska
Format version                           : Version 4 / Version 2
File size                                : 2.14 GiB
Duration                                 : 1h 38mn
Overall bit rate                         : 3 103 Kbps
Encoded date                             : UTC 2018-02-02T20:37:51Z
Writing application                      : HandBrake 1.0.7 2017040900
Writing library                          : Lavf57.7.2

Video
ID                                       : 1
Format                                   : HEVC
Format/Info                              : High Efficiency Video Coding
Format profile                           : Main@L4.0
Codec ID                                 : V_MPEGH/ISO/HEVC
Duration                                 : 1h 38mn
Bit rate                                 : 2 274 Kbps
Width                                    : 1 920 pixels
Height                                   : 1 040 pixels
Display aspect ratio                     : 1.85:1
Frame rate mode                          : Constant
Frame rate                               : 23.976 fps
Color space                              : YUV
Chroma subsampling                       : 4:2:0
Bit depth                                : 8 bits
Bits/(Pixel*Frame)                       : 0.047
Stream size                              : 1.57 GiB (73%)
Writing library                          : x265 2.1:[Windows][GCC 5.3.1][64 bit] 8bit
Encoding settings                        : wpp / ctu=64 / min-cu-size=8 / max-tu-size=32 / tu-intra-depth=1 / tu-inter-depth=1 / me=1 / subme=2 / merange=57 / no-rect / no-amp / max-merge=2 / temporal-mvp / no-early-skip / rskip / rdpenalty=0 / no-tskip / no-tskip-fast / no-strong-intra-smoothing / no-lossless / no-cu-lossless / no-constrained-intra / no-fast-intra / open-gop / no-temporal-layers / interlace=0 / keyint=240 / min-keyint=24 / scenecut=40 / rc-lookahead=20 / lookahead-slices=6 / bframes=4 / bframe-bias=0 / b-adapt=2 / ref=3 / limit-refs=3 / no-limit-modes / weightp / no-weightb / aq-mode=1 / qg-size=32 / aq-strength=1.00 / cbqpoffs=0 / crqpoffs=0 / rd=3 / psy-rd=2.00 / rdoq-level=0 / psy-rdoq=0.00 / log2-max-poc-lsb=8 / no-rd-refine / signhide / deblock=0:0 / no-sao / no-sao-non-deblock / b-pyramid / cutree / no-intra-refresh / rc=crf / crf=23.0 / qcomp=0.60 / qpmin=0 / qpmax=69 / qpstep=4 / ipratio=1.40 / pbratio=1.30
Default                                  : Yes
Forced                                   : No

Audio #1
ID                                       : 2
Format                                   : AC-3
Format/Info                              : Audio Coding 3
Mode extension                           : CM (complete main)
Format settings, Endianness              : Big
Codec ID                                 : A_AC3
Duration                                 : 1h 38mn
Bit rate mode                            : Constant
Bit rate                                 : 384 Kbps
Channel(s)                               : 2 channels
Channel positions                        : Front: L R
Sampling rate                            : 48.0 KHz
Bit depth                                : 16 bits
Compression mode                         : Lossy
Delay relative to video                  : -88ms
Stream size                              : 271 MiB (12%)
Title                                    : Stereo
Language                                 : German
Default                                  : Yes
Forced                                   : No

Audio #2
ID                                       : 3
Format                                   : AC-3
Format/Info                              : Audio Coding 3
Mode extension                           : CM (complete main)
Format settings, Endianness              : Big
Codec ID                                 : A_AC3
Duration                                 : 1h 38mn
Bit rate mode                            : Constant
Bit rate                                 : 384 Kbps
Channel(s)                               : 2 channels
Channel positions                        : Front: L R
Sampling rate                            : 48.0 KHz
Bit depth                                : 16 bits
Compression mode                         : Lossy
Delay relative to video                  : -88ms
Stream size                              : 271 MiB (12%)
Title                                    : Stereo
Language                                 : English
Default                                  : No
Forced                                   : No


Download:
Share Online Share OnlineShare OnlineShare Online
 

Kommentare