DNS SERVER AENDERNum der staatlichen Zensur zu umgehen. Sollten wir von eurem Provider geseprrt werden, nutzt den TOR BROWSER oder ändert euren DNS SERVER.

Filmwünsche können bei uns im Forum abgegeben werden

Wir Speichern Nicht




 
 
 
Top Releases
Die.Spur.2017.GERMAN.DUAL.CO...
Im.Zweifel.gluecklich.2017.G...
Deadpool.2.Super.Duper.Cut.2...
Diplomatie.2014.German.AC3.1...
Die.Spur.2017.GERMAN.1080p.B...
Die.Spur.2017.GERMAN.720p.Bl...
Ataris.Reise.2018.German.DL....
Ataris.Reise.2018.German.720...
Stronger.2017.German.DL.1080...
Stronger.2017.German.720p.Bl...

Cinedubs
The.Equalizer.2.TS.LD.German...
Der.Hauptmann.2017.German.AA...
Der.Hauptmann.2017.German.AA...
Ghost.Stories.2017.German.AC...
Ghost.Stories.2017.German.AC...
Oceans.8.German.DL.AC3.Dubbe...
Oceans.8.German.DL.AC3.Dubbe...
Hereditary.Das.Vermaechtnis....
Hereditary.Das.Vermaechtnis....
Oceans.8.2018.German.DL.AC3D...

Neuerscheinungen 2017-18
Wie.das.Leben.so.spielt.Funn...
Gewalt.und.Leidenschaft.Conv...
Chatos.Land.1972.MULTi.COMPL...
No.Good.Deed.2002.MULTI.COMP...
Hot.Dog.2018.German.AC3.1080...
Luna.2017.German.AC3.1080p.B...
Die.Gesetze.der.Thermodynami...
Die.Gesetze.der.Thermodynami...
Kings.2017.German.720p.BluRa...
Kings.2017.German.DL.1080p.B...

XXX
Bang.Glamkore.18.07.05.Linda...
Cosmid.18.07.06.Ivy.Jane.Ivy...
BrattySis.18.07.06.Lexi.Lore...
CastingCouch-HD.18.06.29.Lil...
1000Facials.18.08.27.Alura.J...
CherryPimps.18.08.27.Charlot...
AGirlKnows.18.07.05.Lexi.Don...
ClubSeventeen.18.07.05.Viole...
BigGulpGirls.18.08.21.Lacy.C...
Analized.18.07.05.Candace.Da...
CastingCouch-HD.18.06.22.Cal...
Beauty-Angels.18.07.05.Alex....
AllOver30.18.08.27.Victoria....
Babes.18.07.05.Jessa.Rhodes....
Bang.Confessions.18.07.06.Br...
BrownBunnies.18.07.06.Lola.C...
AllOver30.18.07.06.Georgie.L...
BadDaddyPOV.18.07.06.Kinsley...
AllOver30.18.07.05.Kamila.XX...
BigGulpGirls.18.08.25.Alex.C...

3D
Avengers.Infinity.War.3D.201...
Rampage.Big.Meets.Bigger.3D....
Rampage.Big.Meets.Bigger.3D....
Rampage.Big.Meets.Bigger.3D....
Winter.Games.3D.2013.DUAL.CO...
Tomb.Raider.3D.2018.German.7...
Rampage.Big.Meets.Bigger.3D....
Rampage.Big.Meets.Bigger.3D....
Tomb.Raider.3D.2018.MULTi.CO...
Pacific.Rim.Uprising.3D.2018...
Ready.Player.One.3D.2018.Ger...
Rampage.-.Big.Meets.Bigger.2...
Ready.Player.One.2018.3D.HOU...
Ready.Player.One.2018.3D.HSB...
Ready.Player.One.3D.2018.MUL...

Old_Stuff
Vikings.S02.German.DL.1080p....
Be.Kind.Rewind.Abgedreht.200...
Be.Kind.Rewind.Abgedreht.200...
Dracula.The.Dark.Lord.2012.G...
21.2008.German.DL.1080p.BluR...
Achtung.fertig.WK.Swissgerma...
The.Ouija.Exorcism.2015.MULT...
Meine.liebe.Rabenmutter.germ...
Da.Vincis.Demons.S01.Complet...
Eragon.Das.Vermaechtnis.der....
Adele.und.das.Geheimnis.des....
Die.fabelhafte.Welt.der.Amel...
Haus.des.Geldes.S01.German.M...
How.I.Met.Your.Mother.S01.Ge...
The.Dark.Knight.Rises.2012.M...

Filme
Lets.Kill.Wards.Wife.2014.Ge...
Liberal.Arts.2012.German.DL....
Hardkor.Disko.2014.German.10...
Jinn.2014.German.DL.1080p.Bl...
The.5th.Commandment.Du.solls...
Keanu.Her.mit.dem.Kaetzchen....
Little.Devil.2014.German.DL....
Jesse.James.Mann.ohne.Gesetz...
Der.Mandant.2011.German.DL.1...
Kopfueber.in.Amerika.1985.BD...
Abandon.-.Ein.moerderisches....
The.End.2017.German.DTS-HD.D...
Vater.des.Jahres.2018.German...
Save.The.Last.Dance.2001.GER...
Die.Stewardessen.Academy.198...
Der.Anschlag.2002.German.AC3...
Jackie.Brown.1997.Special.Ed...
Origin.Unknown.2018.German.D...
Cradle.of.Fear.2001.MULTi.CO...
The.Flash.2014.S04.GERMAN.72...
Supergirl.S03.COMPLETE.GERMA...
Gotham.S04.GERMAN.720p.HDTV....
Paradise.PD.S01.COMPLETE.Ger...
Hot.Tub.Der.Whirlpool.ist.ne...

 
 
Sons.of.Anarchy.S07.COMPLETE.German.DL.720p.BluRay.x264-RegeLRechT

Jahr: 2014
Genre: Krimi | Drama | Thriller
Sprache: Deutsch DTS | Englisch AC3
Laufzeit: 1h15min je Folge
Bitrate: 2200 Kbps
Format: MKV
Größe: 1,8 GB je Folge
Release:

Beschreibung:
Wann ist das Dasein als Renegade zu einem einfachen Geschäft verkommen? Wann ist der Ehrenkodex der Gesetzlosen zu einer aussterbenden Art geworden? In Charming, Kalifornien, gibt es noch eine Spielart von diesem viel gerühmten Gesetz. Über die fiktive Kleinstadt in der Wüste herrscht die Motorradgang „Sons of Anarchy“. Aber es ist mehr als nur eine Gang oder ein Motorradclub, es ist eine Bruderschaft, eine Familie. Wie jede anständige Gang betreibt auch diese Waffenhandel und ein paar andere illegale Geschäfte. Ehre ist eben teuer, Familie auch. Auch wenn es bei dem Namen etwas paradox erscheint haben die Söhne der Anarchie strenge Regeln, nach denen sie leben.


General
Complete name                            : Sons.of.Anarchy.S07E01.Schwarzer.Witwer.German.DL.720p.BluRay.x264-RegeLRechT\regelrecht-sons.of.anarchy.s07e01.720p.mkv
Format                                   : Matroska
Format version                           : Version 4 / Version 2
File size                                : 1.81 GiB
Duration                                 : 1h 15mn
Overall bit rate                         : 3 439 Kbps
Movie name                               : SONS OF ANARCHY - S07E01 - SCHWARZER WITWER - 720P - REGELRECHT
Encoded date                             : UTC 2016-03-24 20:16:45
Writing application                      : mkvmerge v6.1.0 ('Old Devil') built on Mar  2 2013 14:32:37
Writing library                          : libebml v1.3.0 + libmatroska v1.4.0

Video
ID                                       : 1
Format                                   : AVC
Format/Info                              : Advanced Video Codec
Format profile                           : High@L4.1
Format settings, CABAC                   : Yes
Format settings, ReFrames                : 5 frames
Codec ID                                 : V_MPEG4/ISO/AVC
Duration                                 : 1h 15mn
Bit rate                                 : 2 218 Kbps
Width                                    : 1 280 pixels
Height                                   : 720 pixels
Display aspect ratio                     : 16:9
Frame rate mode                          : Constant
Frame rate                               : 23.976 fps
Color space                              : YUV
Chroma subsampling                       : 4:2:0
Bit depth                                : 8 bits
Scan type                                : Progressive
Bits/(Pixel*Frame)                       : 0.100
Stream size                              : 1.17 GiB (65%)
Title                                    : SONS OF ANARCHY - S07E01 - SCHWARZER WITWER - 720P - REGELRECHT
Writing library                          : x264 core 148 r2665 a01e339
Encoding settings                        : cabac=1 / ref=5 / deblock=1:-3:-3 / analyse=0x3:0x133 / me=umh / subme=7 / psy=1 / psy_rd=1.00:0.00 / mixed_ref=1 / me_range=16 / chroma_me=1 / trellis=1 / 8x8dct=1 / cqm=0 / deadzone=21,11 / fast_pskip=0 / chroma_qp_offset=-2 / threads=12 / lookahead_threads=2 / sliced_threads=0 / nr=0 / decimate=1 / interlaced=0 / bluray_compat=0 / constrained_intra=0 / bframes=3 / b_pyramid=2 / b_adapt=1 / b_bias=0 / direct=1 / weightb=1 / open_gop=0 / weightp=1 / keyint=250 / keyint_min=23 / scenecut=40 / intra_refresh=0 / rc_lookahead=40 / rc=crf / mbtree=1 / crf=20.0 / qcomp=0.60 / qpmin=0 / qpmax=69 / qpstep=4 / ip_ratio=1.40 / aq=1:1.00
Default                                  : Yes
Forced                                   : Yes

Audio #1
ID                                       : 2
Format                                   : DTS
Format/Info                              : Digital Theater Systems
Mode                                     : 16
Format settings, Endianness              : Big
Codec ID                                 : A_DTS
Duration                                 : 1h 15mn
Bit rate mode                            : Constant
Bit rate                                 : 768 Kbps
Channel(s)                               : 6 channels
Channel positions                        : Front: L C R, Side: L R, LFE
Sampling rate                            : 48.0 KHz
Bit depth                                : 24 bits
Compression mode                         : Lossy
Stream size                              : 414 MiB (22%)
Title                                    : GER - DTS
Language                                 : German
Default                                  : Yes
Forced                                   : Yes

Audio #2
ID                                       : 3
Format                                   : AC-3
Format/Info                              : Audio Coding 3
Mode extension                           : CM (complete main)
Format settings, Endianness              : Big
Codec ID                                 : A_AC3
Duration                                 : 1h 15mn
Bit rate mode                            : Constant
Bit rate                                 : 384 Kbps
Channel(s)                               : 6 channels
Channel positions                        : Front: L C R, Side: L R, LFE
Sampling rate                            : 48.0 KHz
Bit depth                                : 16 bits
Compression mode                         : Lossy
Stream size                              : 207 MiB (11%)
Title                                    : ENG - AC3
Language                                 : English
Default                                  : No
Forced                                   : No

Text #1
ID                                       : 4
Format                                   : UTF-8
Codec ID                                 : S_TEXT/UTF8
Codec ID/Info                            : UTF-8 Plain Text
Title                                    : GER - SUBS
Language                                 : German
Default                                  : No
Forced                                   : No

Text #2
ID                                       : 5
Format                                   : UTF-8
Codec ID                                 : S_TEXT/UTF8
Codec ID/Info                            : UTF-8 Plain Text
Title                                    : ENG - SUBS
Language                                 : English
Default                                  : No
Forced                                   : No

Menu
00:00:00.000                             : en:00:00:00.000
00:02:11.340                             : en:00:02:11.340
00:06:32.517                             : en:00:06:32.517
00:13:09.038                             : en:00:13:09.038
00:16:14.432                             : en:00:16:14.432
00:20:56.630                             : en:00:20:56.630
00:24:25.297                             : en:00:24:25.297
00:29:52.791                             : en:00:29:52.791
00:35:37.677                             : en:00:35:37.677
00:40:12.410                             : en:00:40:12.410
00:45:33.564                             : en:00:45:33.564
00:49:14.243                             : en:00:49:14.243
00:52:46.205                             : en:00:52:46.205
00:59:09.212                             : en:00:59:09.212
01:01:44.743                             : en:01:01:44.743
01:05:41.187                             : en:01:05:41.187



Download:
Share-Online.biz Share-Online.bizShare-Online.bizShare-Online.biz | Uploaded.net Uploaded.netUploaded.netUploaded.net
 

Kommentare